[Login] or [Signup]

First Cams

Xvid/x264



Non-English

Loading...

Patrick 2018 1080p WEB-DL DD 5.1 x264 [MW]


Complete Name :Patrick 2018 1080p WEB-DL DD 5.1 x264 [MW]
Download torrent:    Patrick 2018 1080p WEB-DL DD 5.1 x264 [MW].torrent
Info Hash:9e36e5c2990b42861f03e1377081315113e77202
Category:Movies  > HD
Torrent language:English  
Seeds | Leech:47 | 12
Complete: 405
Health:
Total Size:1.67 GB
Downloaded:10 Times
Added By:      MovieFreak
Date Added:06-11-2018 11:37:pm | Last Edit:  08-11-2018 08:22:am

 

Main Technical Comments




General
Format                                   : Matroska
Format version                           : Version 4 / Version 2
File size                                : 1.67 GiB
Duration                                 : 1 h 34 min
Overall bit rate                         : 2 528 kb/s

Video
ID                                       : 1
Format                                   : AVC
Format/Info                              : Advanced Video Codec
Format profile                           : [email protected]
Format settings                          : CABAC / 4 Ref Frames
Format settings, CABAC                   : Yes
Format settings, RefFrames               : 4 frames
Codec ID                                 : V_MPEG4/ISO/AVC
Duration                                 : 1 h 34 min
Bit rate                                 : 2 200 kb/s
Width                                    : 1 920 pixels
Height                                   : 804 pixels
Display aspect ratio                     : 2.40:1
Frame rate mode                          : Constant
Frame rate                               : 23.976 (24000/1001) FPS
Color space                              : YUV
Chroma subsampling                       : 4:2:0
Bit depth                                : 8 bits
Scan type                                : Progressive
Bits/(Pixel*Frame)                       : 0.059
Stream size                              : 1.41 GiB (85%)
Writing library                          : x264 core 155 r2901 7d0ff22
Default                                  : Yes
Forced                                   : No

Audio
ID                                       : 2
Format                                   : AC-3
Format/Info                              : Audio Coding 3
Codec ID                                 : A_AC3
Duration                                 : 1 h 34 min
Bit rate mode                            : Constant
Bit rate                                 : 384 kb/s
Channel(s)                               : 6 channels
Channel positions                        : Front: L C R, Side: L R, LFE
Sampling rate                            : 48.0 kHz
Frame rate                               : 31.250 FPS (1536 SPF)
Bit depth                                : 16 bits
Compression mode                         : Lossy
Stream size                              : 259 MiB (15%)
Language                                 : English
Service kind                             : Complete Main
Default                                  : Yes
Forced                                   : No


https://pichub.site/image/Vy3sj
https://pichub.site/image/Vy1ar
https://pichub.site/image/Vy98k
https://pichub.site/image/VyH5Q
https://pichub.site/image/VyTqv
https://pichub.site/image/VyQyd

........................................................................


Loading...


Trackers:
udp://tracker.coppersurfer.tk:6969/announce

Patrick 2018 1080p WEB-DL DD 5.1 x264 [MW]
Files
Patrick 2018 1080p WEB-DL DD 5.1 x264 [MW].mkv1.67 GB


Similar Torrents
Type Name Size Added S L
x264 Patrick.Melrose.S01E01.WEB.H264-DEFLATE[ettv]
348.03 MB 2018-05-13 03:24:26 3675 1469
x264 Patrick.Melrose.S01E04.INTERNAL.WEB.H264-DEFLATE[e...
337.77 MB 2018-06-03 03:37:09 2598 416
x264 Patrick.Melrose.S01E02.INTERNAL.WEB.H264-DEFLATE[e...
368.27 MB 2018-05-20 08:46:34 2361 240
x264 Patrick.Melrose.S01E03.INTERNAL.WEB.H264-DEFLATE[e...
324.94 MB 2018-05-27 04:05:07 1955 98
Divx/Xvid Patrick.2018.HDRip.XviD.AC3-EVO
1.35 GB 2018-11-05 07:00:31 1687 406
HD Patrick.Melrose.S01E05.720p.WEB.H264-DEFLATE[ettv]
1.20 GB 2018-06-10 03:47:45 1680 269
HD Patrick.Melrose.S01E04.INTERNAL.720p.WEB.H264-DEFL...
1.23 GB 2018-06-03 03:37:13 980 99
h.264/x264 Patrick.2018.HDRip.XviD.AC3-EVO[EtMovies]
1.35 GB 2018-11-05 02:48:30 755 190
HD Patrick.Melrose.S01E01.720p.WEB.H264-DEFLATE[ettv]
1.39 GB 2018-05-13 03:22:13 503 275
HD Patrick.2018.1080p.WEB-DL.H264.AC3-EVO[EtHD]
3.28 GB 2018-11-05 02:50:31 401 162

Comments:
No comments still posted
Loading...
Powered by TT | Page Generated In 0.049923 secs.
| RSS Feed | Feed Info