[Login] or [Signup]

First Cams

Xvid/x264



Non-English

Loading...

The Elf 2017 1080p WEB-DL DD 5.1 x264 [MW]


Complete Name :The Elf 2017 1080p WEB-DL DD 5.1 x264 [MW]
Download torrent:    The Elf 2017 1080p WEB-DL DD 5.1 x264 [MW].torrent
Info Hash:884a016837c6af680fc3b8f6badb0099273a301d
Category:Movies  > HD
Torrent language:English  
Seeds | Leech:39 | 0
Complete: 349
Health:
Total Size:1.75 GB
Downloaded:10 Times
Added By:      MovieFreak
Date Added:06-11-2018 11:37:pm | Last Edit:  08-11-2018 08:22:am

 

Main Technical Comments




General
Format                                   : Matroska
Format version                           : Version 4 / Version 2
File size                                : 1.75 GiB
Duration                                 : 1 h 30 min
Overall bit rate                         : 2 751 kb/s

Video
ID                                       : 1
Format                                   : AVC
Format/Info                              : Advanced Video Codec
Format profile                           : [email protected]
Format settings                          : CABAC / 4 Ref Frames
Format settings, CABAC                   : Yes
Format settings, RefFrames               : 4 frames
Codec ID                                 : V_MPEG4/ISO/AVC
Duration                                 : 1 h 30 min
Bit rate                                 : 2 400 kb/s
Width                                    : 1 920 pixels
Height                                   : 1 080 pixels
Display aspect ratio                     : 16:9
Frame rate mode                          : Constant
Frame rate                               : 23.976 (24000/1001) FPS
Color space                              : YUV
Chroma subsampling                       : 4:2:0
Bit depth                                : 8 bits
Scan type                                : Progressive
Bits/(Pixel*Frame)                       : 0.048
Stream size                              : 1.50 GiB (86%)
Writing library                          : x264 core 155 r2901 7d0ff22
Default                                  : Yes
Forced                                   : No

Audio
ID                                       : 2
Format                                   : AC-3
Format/Info                              : Audio Coding 3
Codec ID                                 : A_AC3
Duration                                 : 1 h 30 min
Bit rate mode                            : Constant
Bit rate                                 : 384 kb/s
Channel(s)                               : 6 channels
Channel positions                        : Front: L C R, Side: L R, LFE
Sampling rate                            : 48.0 kHz
Frame rate                               : 31.250 FPS (1536 SPF)
Bit depth                                : 16 bits
Compression mode                         : Lossy
Stream size                              : 250 MiB (14%)
Language                                 : English
Service kind                             : Complete Main
Default                                  : Yes
Forced                                   : No

Text
ID                                       : 3
Format                                   : UTF-8
Codec ID                                 : S_TEXT/UTF8
Codec ID/Info                            : UTF-8 Plain Text
Duration                                 : 1 h 29 min
Bit rate                                 : 35 b/s
Count of elements                        : 921
Stream size                              : 23.5 KiB (0%)
Language                                 : English
Default                                  : Yes
Forced                                   : No


https://pichub.site/image/Vyp5g
https://pichub.site/image/VylwX
https://pichub.site/image/Vy2qI
https://pichub.site/image/Vy608
https://pichub.site/image/VynE5
https://pichub.site/image/VyPFJ

........................................................................


Loading...


Trackers:
udp://tracker.coppersurfer.tk:6969/announce

The Elf 2017 1080p WEB-DL DD 5.1 x264 [MW]
Files
The Elf 2017 1080p WEB-DL DD 5.1 x264 [MW].mkv1.75 GB


Similar Torrents
Type Name Size Added S L
h.264/x264 The.Elf.2017.AMZN.WEB-DL.AAC2.0.H.264-NTG[EtMovies...
789.39 MB 2018-11-05 12:32:35 81 55
HD The.Elf.2017.1080p.AMZN.WEB-DL.DDP5.1.H.264-NTG[Et...
4.99 GB 2018-11-05 19:50:18 27 32
h.264/x264 The.Elf.2017.AMZN.WEB-DL.AAC2.0.H.264.LLG
884.94 MB 2018-11-06 09:58:23 10 18

Comments:
No comments still posted
Loading...
Powered by TT | Page Generated In 0.045773 secs.
| RSS Feed | Feed Info