[Login] or [Signup]

First Cams

Xvid/x264



Non-English

Loading...

Rangasthalam (2018) 720p v2 Telugu HDRp x264 AC3 +ESubs by india4movie

 Download:  
 Info Hash:c2dd2a4e215279cfd3f9d7889df93fd5a57eb39f
 Category:Movies > Non-English
 Seeds: 309
 Leechers: 95
 Health:
 Lang:Hindi  Hindi
 Total Size:1.39 GB
 Added By:full4movies
 Date Added:14-05-2018 12:12:44

 

IMDB
Rangasthalam
Rangasthalam Released 29 Mar 2018

Genre Action, Drama

Director Sukumar

Writer Srinivas Rongali, Buchi Babu Sana, Thota Srinivas, Sukumar, Kasi Vishal

Actors Ram Charan, Samantha Ruth Prabhu, Aadhi, Jagapathi Babu

Plot Chitti Babu (Ram Charan) who runs a boat for his livelihood becomes the trusted person to powerful landlords fighting for supremacy in village politics and handles the situation when a villager files nomination against these landlords.

Link http://www.imdb.com/title/tt7392212

Last Updated 19-08-2018 18:20:19
9.4

Votes 3,164

Details
Description:


General
Complete name                  : Rangasthalam (2018) 720p v2 Telugu HDRp x264 AC3 +ESubs by india4movie.mkv
Format                         : Matroska
Format version                 : Version 4 / Version 2
File size                      : 1.39 GiB
Duration                       : 2 h 53 min
Overall bit rate               : 1 144 kb/s
Movie name                     : Rangasthalam (2018) - www.india4movie.com
Encoded date                   : UTC 2018-05-14 08:23:28
Writing application            : mkvmerge v8.1.0 ('Psychedelic Postcard') 32bit
Writing library                : libebml v1.3.1 + libmatroska v1.4.2

Video
ID                             : 1
Format                         : AVC
Format/Info                    : Advanced Video Codec
Format profile                 : [email protected]
Format settings, CABAC         : Yes
Format settings, RefFrames     : 4 frames
Codec ID                       : V_MPEG4/ISO/AVC
Duration                       : 2 h 53 min
Bit rate                       : 1 014 kb/s
Width                          : 1 280 pixels
Height                         : 544 pixels
Display aspect ratio           : 2.35:1
Frame rate mode                : Constant
Frame rate                     : 23.976 (23976/1000) FPS
Color space                    : YUV
Chroma subsampling             : 4:2:0
Bit depth                      : 8 bits
Scan type                      : Progressive
Bits/(Pixel*Frame)             : 0.061
Stream size                    : 1.23 GiB (89%)
Writing library                : x264 core 155 r2901 7d0ff22
Language                       : Telugu
Default                        : Yes
Forced                         : No

Audio
ID                             : 2
Format                         : AC-3
Format/Info                    : Audio Coding 3
Format settings, Endianness    : Big
Codec ID                       : A_AC3
Duration                       : 2 h 53 min
Bit rate mode                  : Constant
Bit rate                       : 128 kb/s
Channel(s)                     : 6 channels
Channel positions              : Front: L C R, Side: L R, LFE
Sampling rate                  : 44.1 kHz
Frame rate                     : 28.711 FPS (1536 SPF)
Bit depth                      : 16 bits
Compression mode               : Lossy
Stream size                    : 159 MiB (11%)
Language                       : Telugu
Service kind                   : Complete Main
Default                        : Yes
Forced                         : No

Text
ID                             : 3
Format                         : UTF-8
Codec ID                       : S_TEXT/UTF8
Codec ID/Info                  : UTF-8 Plain Text
Duration                       : 2 h 50 min
Bit rate                       : 74 b/s
Count of elements              : 2381
Stream size                    : 92.3 KiB (0%)
Language                       : English
Default                        : Yes
Forced                         : No

Screen Shoots


Loading...

Ratings:Not Yet Rated (Log in to rate it)

Tracker:
udp://tracker.coppersurfer.tk:6969/announce


File List: 


Comments

<< Previous      Next >>
1 - 1

[Report] Posted: 22-05-2018 at 07:28:50
Sachiii



http://linkrex.net/Cww  (Rangastalam Eng Subtitles)

1 - 1
<< Previous      Next >>


Loading...
Powered by TT | Page Generated In 0.596472 secs.
| RSS Feed | Feed Info