Warning! Use a VPN When Downloading Torrents!
Your IP Address is .   Location is
Your Internet Provider is tracking your torrent activity!  Hide your IP ADDRESS with a VPN!
We strongly recommend using Trust.Zone VPN to anonymize your torrenting. It's FREE!
Get VPN Now for FREE!
First Cams

Xvid/x264



Non-English

Site Friends
      ETTV

      WorldWide Torrents

      Free Tutorials

      Aiosearch


Loading...

Die.In.One.Day.2018.HDRip.XviD.AC3.LLG


Download torrent:      
Info Hash:  3b1c060a4ddf590e59c0f7c3c26a783f80cc9c5c
Category:  Movies  > Divx/Xvid
Torrent language:  English  
Seeds | Leech:  58 | 37
Complete:   412
Health:   
Total Size:  773.38 MB
Added By:        LifeLongg
Date Added:  06-11-2018 04:10:pm | Last Edit:  27-01-2019 02:01:am

Un système d'onglets en javascript
Description Trackers Files Comments Download


******************************Thumbnail:**********************



******************************Screenshots:********************

Screenshot 1

Screenshot 2

Screenshot 3

Screenshot 4

Screenshot 5

Screenshot 6

Screenshot 7

Screenshot 8

Screensho  9

*****************************Poster:***********************




************************************************************

Die.In.One.Day.2018.HDRip.XviD.AC3.LLG.mp4
Format                                   : MPEG-4
Format profile                           : Base Media
Codec ID                                 : isom (isom/iso2/avc1/mp41)
File size                                : 763 MiB
Duration                                 : 1 h 18 min
Overall bit rate mode                    : Variable
Overall bit rate                         : 1 367 kb/s


Video
ID                                       : 1
Format                                   : AVC
Format/Info                              : Advanced Video Codec
Format profile                           : [email protected]
Format settings                          : CABAC / 1 Ref Frames
Format settings, CABAC                   : Yes
Format settings, RefFrames               : 1 frame
Codec ID                                 : avc1
Codec ID/Info                            : Advanced Video Coding
Duration                                 : 1 h 18 min
Bit rate mode                            : Variable
Bit rate                                 : 1 171 kb/s
Maximum bit rate                         : 4 500 kb/s
Width                                    : 720 pixels
Height                                   : 304 pixels
Display aspect ratio                     : 2.35:1
Frame rate mode                          : Constant
Frame rate                               : 24.000 FPS
Color space                              : YUV
Chroma subsampling                       : 4:2:0
Bit depth                                : 8 bits
Scan type                                : Progressive
Bits/(Pixel*Frame)                       : 0.223
Stream size                              : 654 MiB (86%)


Audio
ID                                       : 2
Format                                   : AC-3
Format/Info                              : Audio Coding 3
Commercial name                          : Dolby Digital
Codec ID                                 : ac-3
Duration                                 : 1 h 18 min
Bit rate mode                            : Constant
Bit rate                                 : 192 kb/s
Channel(s)                               : 2 channels
Channel layout                           : L R
Sampling rate                            : 48.0 kHz
Frame rate                               : 31.250 FPS (1536 SPF)
Bit depth                                : 16 bits
Compression mode                         : Lossy
Stream size                              : 107 MiB (14%)
Title                                    : Stereo
Language                                 : English
Service kind                             : Complete Main
Default                                  : Yes
Alternate group                          : 1



**************************************************************



Similar Torrents
Type Name Size Added S L
Divx/Xvid Die.In.One.Day.2018.HDRip.XviD.AC3-EVO
1.18 GB 2018-11-06 13:18:46 310 205
h.264/x264 Die in One Day - Improvvisa o muori (2018).SD.H264...
1.21 GB 2019-04-24 17:14:56 259 89
Divx/Xvid Die in One Day - Improvvisa o muori (2018).SD.XviD...
723.78 MB 2019-04-24 17:17:18 177 45
h.264/x264 Die.In.One.Day.2018.AMZN.WEB-DL.DD2.0.H264-CMRG[Et...
1.06 GB 2018-11-06 10:02:13 106 47
HD Die.In.One.Day.2018.1080p.AMZN.WEB-DL.DD2.0.H264-C...
5.14 GB 2018-11-06 10:08:58 69 39
h.264/x264 Die.In.One.Day.2018.HDRip.XviD.AC3-EVO[EtMovies]
1.18 GB 2018-11-06 13:05:28 50 10
h.264/x264 Die.In.One.Day.2018.720p.AMZN.WEB-DL.DD2.0.H264-CM...
3.04 GB 2018-11-06 10:02:35 40 3
HD Die.In.One.Day.2018.1080p.AMZN.WEB-DL.DD2.0.H264.L...
1.73 GB 2018-11-10 09:26:22 4 2
HD Die.In.One.Day.2018.720p.AMZN.WEB.DL.DD2.0.H264.LL...
1.18 GB 2018-11-10 08:22:26 3 1

Loading...


Trackers:
udp://tracker.openbittorrent.com:80/announce

Die.In.One.Day.2018.HDRip.XviD.AC3.LLG
Files
Die.In.One.Day.2018.HDRip.XviD.AC3.LLG.mp4 (762.84 MB)
SAMPLE.ts (10.55 MB)


Comments:
No comments still posted
Loading...
Powered by TT | Page Generated In 0.169023 secs.
| RSS Feed | Feed Info