[Login] or [Signup]

First Cams

Xvid/x264



Non-English

Loading...

Red Sparrow (2018) 720p Hindi Dubbed HDRip x264 AaC [Hindi (DD5.1)] by Full4movies

 Download:  
 Info Hash:c7402143280d51ce0c6bd914217e3042c339ecb2
 Category:Movies > Non-English
 Seeds: 207
 Leechers: 143
 Health:
 Lang:Hindi  Hindi
 Total Size:1.15 GB
 Added By:full4movies
 Date Added:14-05-2018 09:41:49

 

IMDB
Red Sparrow
Red Sparrow Released 02 Mar 2018

Genre Drama, Mystery, Thriller

Director Francis Lawrence

Writer Justin Haythe (screenplay by), Jason Matthews (based upon the book by)

Actors Jennifer Lawrence, Joel Edgerton, Matthias Schoenaerts, Charlotte Rampling

Plot Ballerina Dominika Egorova is recruited to 'Sparrow School,' a Russian intelligence service where she is forced to use her body as a weapon. Her first mission, targeting a C.I.A. agent, threatens to unravel the security of both nations.

Link http://www.imdb.com/title/tt2873282

Last Updated 19-08-2018 18:20:03
6.6

Votes 91,334

Details
Description:


General
Complete name                  : Red Sparrow (2018) 720p Hindi Dubbed HDRip x264 AaC [Hindi (DD5.1)] by Full4movies.mkv
Format                         : Matroska
Format version                 : Version 4 / Version 2
File size                      : 1.15 GiB
Duration                       : 2 h 20 min
Overall bit rate               : 1 178 kb/s
Movie name                     : Red Sparrow (2018) Hindi - www.Full4mvoies.co
Encoded date                   : UTC 2018-05-14 05:58:40
Writing application            : mkvmerge v8.1.0 ('Psychedelic Postcard') 32bit
Writing library                : libebml v1.3.1 + libmatroska v1.4.2

Video
ID                             : 1
Format                         : AVC
Format/Info                    : Advanced Video Codec
Format profile                 : [email protected]
Format settings, CABAC         : Yes
Format settings, RefFrames     : 4 frames
Codec ID                       : V_MPEG4/ISO/AVC
Duration                       : 2 h 20 min
Bit rate                       : 1 050 kb/s
Width                          : 1 280 pixels
Height                         : 534 pixels
Display aspect ratio           : 2.40:1
Original display aspect ratio  : 2.40:1
Frame rate mode                : Variable
Frame rate                     : 23.976 FPS
Color space                    : YUV
Chroma subsampling             : 4:2:0
Bit depth                      : 8 bits
Scan type                      : Progressive
Bits/(Pixel*Frame)             : 0.064
Stream size                    : 1.03 GiB (89%)
Writing library                : x264 core 155
Language                       : English
Default                        : Yes
Forced                         : No

Audio
ID                             : 2
Format                         : AAC
Format/Info                    : Advanced Audio Codec
Format profile                 : LC
Codec ID                       : A_AAC
Duration                       : 2 h 20 min
Bit rate                       : 125 kb/s
Channel(s)                     : 2 channels
Channel positions              : Front: L R
Sampling rate                  : 44.1 kHz
Frame rate                     : 43.066 FPS (1024 SPF)
Compression mode               : Lossy
Delay relative to video        : -66 ms
Stream size                    : 126 MiB (11%)
Language                       : Hindi
Default                        : Yes
Forced                         : No

Screen Shoots


Loading...

Ratings:Not Yet Rated (Log in to rate it)

Tracker:
udp://tracker.coppersurfer.tk:6969/announce


File List: 


Similar Torrents
Type Name Size Added S L
HD Red.Sparrow.2018.1080p.HC.HDRip.X264.AC3-EVO[EtHD]
3.73 GB 2018-04-15 20:05:32 9892 4485
Divx/Xvid Red.Sparrow.2018.HC.HDRip.XviD.AC3-EVO
1.31 GB 2018-04-15 19:46:28 4250 1274
HD Red Sparrow 2018 Jennifer Lawrence.720p.H264.itali...
2.73 GB 2018-05-16 18:42:14 2563 1385
HD Red.Sparrow.2018.1080p.BluRay.x264-DRONES[EtHD]
11.02 GB 2018-05-09 15:09:36 2181 1315
HD Red.Sparrow.2018.720p.BluRay.x264-DRONES[EtHD]
6.61 GB 2018-05-09 15:08:38 928 553
Divx/Xvid Red.Sparrow.2018.BRRip.XViD.AC3-ETRG
1.42 GB 2018-05-09 12:07:28 920 449
HD Red.Sparrow.2018.720p.HC.HDRip.X264.AC3-EVO[EtHD]
2.69 GB 2018-04-15 20:03:33 458 175
HD Red.Sparrow.2018.720p.BRRip.x264.AAC-ETRG
986.65 MB 2018-05-09 14:58:16 366 118
HD Red Sparrow 2018 720p HC HDRip x264 [MW]
1.06 GB 2018-04-16 11:06:04 250 129
h.264/x264 Red Sparrow (2018) 720p BRRip x264 ACC by Full4mov...
1.32 GB 2018-05-09 09:17:59 79 42

Comments

No comments still posted

Loading...
Powered by TT | Page Generated In 0.595861 secs.
| RSS Feed | Feed Info