[Login] or [Signup]

First Cams

Xvid/x264



Non-English

Loading...

Traffik 2018) 720p HDCAM x264 AC3 by Full4movies

 Download:  
 Info Hash:c5dc73d5ed544d2de4bbe8d70e0eb6c48da0ab48
 Category:Movies > h.264/x264
 Seeds: 127
 Leechers: 26
 Health:
 Lang:English  English
 Total Size:897.95 MB
 Added By:full4movies
 Date Added:14-05-2018 09:35:21

 

IMDB
Traffik
Traffik Released 20 Apr 2018

Genre Thriller

Director Deon Taylor

Writer Deon Taylor

Actors Priscilla Quintana, Luke Goss, Paula Patton, William Fichtner

Plot A couple off for a romantic weekend in the mountains are accosted by a biker gang. Alone in the mountains, Brea and John must defend themselves against the gang, who will stop at nothing to protect their secrets.

Link http://www.imdb.com/title/tt5670152

Last Updated 26-09-2018 10:13:11
6.1

Votes 13,828

Details
Description:


General
Complete name                  : Traffik 2018) 720p HDCAM x264 AC3 by Full4movies.mkv
Format                         : Matroska
Format version                 : Version 4 / Version 2
File size                      : 898 MiB
Duration                       : 1 h 31 min
Overall bit rate               : 1 376 kb/s
Movie name                     : Traffik (2018) - www.Full4movies.co
Encoded date                   : UTC 2018-05-13 16:21:55
Writing application            : mkvmerge v8.1.0 ('Psychedelic Postcard') 32bit
Writing library                : libebml v1.3.1 + libmatroska v1.4.2

Video
ID                             : 1
Format                         : AVC
Format/Info                    : Advanced Video Codec
Format profile                 : [email protected]
Format settings, CABAC         : Yes
Format settings, RefFrames     : 4 frames
Codec ID                       : V_MPEG4/ISO/AVC
Duration                       : 1 h 31 min
Bit rate                       : 990 kb/s
Width                          : 1 280 pixels
Height                         : 640 pixels
Display aspect ratio           : 2.000
Frame rate mode                : Constant
Frame rate                     : 29.970 (29970/1000) FPS
Original frame rate            : 29.970 (30000/1001) FPS
Color space                    : YUV
Chroma subsampling             : 4:2:0
Bit depth                      : 8 bits
Scan type                      : Progressive
Bits/(Pixel*Frame)             : 0.040
Stream size                    : 646 MiB (72%)
Writing library                : x264 core 155 r2901 7d0ff22
Language                       : English
Default                        : Yes
Forced                         : No

Audio
ID                             : 2
Format                         : AC-3
Format/Info                    : Audio Coding 3
Format settings, Endianness    : Big
Codec ID                       : A_AC3
Duration                       : 1 h 31 min
Bit rate mode                  : Constant
Bit rate                       : 384 kb/s
Channel(s)                     : 2 channels
Channel positions              : Front: L R
Sampling rate                  : 44.1 kHz
Frame rate                     : 28.711 FPS (1536 SPF)
Bit depth                      : 16 bits
Compression mode               : Lossy
Stream size                    : 251 MiB (28%)
Language                       : English
Service kind                   : Complete Main
Default                        : Yes
Forced                         : No

Screen Shoots


Loading...

Ratings:Not Yet Rated (Log in to rate it)

Tracker:
udp://tracker.coppersurfer.tk:6969/announce


File List: 


Similar Torrents
Type Name Size Added S L
Divx/Xvid Traffik.2018.DVDRip.XviD.AC3-EVO
1.39 GB 2018-07-06 14:42:16 9206 2252
Divx/Xvid Traffik.2018.BRRip.XViD-ETRG
713.56 MB 2018-07-09 09:08:05 549 148
HD Traffik.2018.1080p.BluRay.x264-DRONES[EtHD]
7.72 GB 2018-07-09 01:52:13 447 274
Cam/TS Traffik 2018 HDCAM ENG x264 AAC [MW]
877.62 MB 2018-05-11 17:04:30 347 65
h.264/x264 Traffik.2018.720p.BluRay.x264-DRONES[EtHD]
4.42 GB 2018-07-09 00:43:57 334 82
Cam/TS Traffik 2018 HDCAM ENG X264 - SugarTits
1.72 GB 2018-05-11 10:25:10 265 95
DVD Traffik 2018 DVDRip AAC 2.0 x264 [MW]
857.46 MB 2018-07-08 10:19:23 254 30
h.264/x264 Traffik.2018.BRRip.XviD.AC3-EVO[EtMovies]
1.40 GB 2018-07-09 01:01:35 180 64
h.264/x264 18+.Traffik.2018.BDRip.x264.AAC.With.Sample.LLG
686.90 MB 2018-07-19 13:34:08 178 14
HD Traffik 2018 1080p BluRay x264 DTS [MW]
2.18 GB 2018-07-11 07:14:03 175 53

Comments

No comments still posted

Loading...
Powered by TT | Page Generated In 0.575522 secs.
| RSS Feed | Feed Info