[Login] or [Signup]

Navigation

First Cams

Xvid/x264



Non-English

Traffik 2018) 720p HDCAM x264 AC3 by Full4movies

 Download:  
 Info Hash:c5dc73d5ed544d2de4bbe8d70e0eb6c48da0ab48
 Category:Movies > h.264/x264
 Seeds: 127
 Leechers: 26
 Health:
 Lang:English  English
 Total Size:897.95 MB
 Added By:full4movies
 Date Added:14-05-2018 09:35:21
 Views:61
 Hits:1

 
Details
Description:


General
Complete name                  : Traffik 2018) 720p HDCAM x264 AC3 by Full4movies.mkv
Format                         : Matroska
Format version                 : Version 4 / Version 2
File size                      : 898 MiB
Duration                       : 1 h 31 min
Overall bit rate               : 1 376 kb/s
Movie name                     : Traffik (2018) - www.Full4movies.co
Encoded date                   : UTC 2018-05-13 16:21:55
Writing application            : mkvmerge v8.1.0 ('Psychedelic Postcard') 32bit
Writing library                : libebml v1.3.1 + libmatroska v1.4.2

Video
ID                             : 1
Format                         : AVC
Format/Info                    : Advanced Video Codec
Format profile                 : High@L3.1
Format settings, CABAC         : Yes
Format settings, RefFrames     : 4 frames
Codec ID                       : V_MPEG4/ISO/AVC
Duration                       : 1 h 31 min
Bit rate                       : 990 kb/s
Width                          : 1 280 pixels
Height                         : 640 pixels
Display aspect ratio           : 2.000
Frame rate mode                : Constant
Frame rate                     : 29.970 (29970/1000) FPS
Original frame rate            : 29.970 (30000/1001) FPS
Color space                    : YUV
Chroma subsampling             : 4:2:0
Bit depth                      : 8 bits
Scan type                      : Progressive
Bits/(Pixel*Frame)             : 0.040
Stream size                    : 646 MiB (72%)
Writing library                : x264 core 155 r2901 7d0ff22
Language                       : English
Default                        : Yes
Forced                         : No

Audio
ID                             : 2
Format                         : AC-3
Format/Info                    : Audio Coding 3
Format settings, Endianness    : Big
Codec ID                       : A_AC3
Duration                       : 1 h 31 min
Bit rate mode                  : Constant
Bit rate                       : 384 kb/s
Channel(s)                     : 2 channels
Channel positions              : Front: L R
Sampling rate                  : 44.1 kHz
Frame rate                     : 28.711 FPS (1536 SPF)
Bit depth                      : 16 bits
Compression mode               : Lossy
Stream size                    : 251 MiB (28%)
Language                       : English
Service kind                   : Complete Main
Default                        : Yes
Forced                         : No

Screen Shoots


Loading...

Ratings:Not Yet Rated (Log in to rate it)

Tracker:
udp://tracker.coppersurfer.tk:6969/announce


File List: 


Similar Torrents
Type Name Size Added S L
Cam/TS Traffik 2018 HDCAM ENG x264 AAC [MW]
877.62 MB 2018-05-11 17:04:30 347 65
Cam/TS Traffik 2018 HDCAM ENG X264 - SugarTits
1.72 GB 2018-05-11 10:25:10 265 95

Comments

No comments still posted

Loading...
Powered by TorrentTrader v2-svn -|- Page Generated In 0.492076 secs.
www.torrenttrader.org -|- -|- RSS Feed -|- Feed Info
Theme By: Nikkbu