[Login] or [Signup]

Navigation

First Cams

Xvid/x264



Non-English

Warning! Use a VPN When Downloading Torrents!
Your IP Address is .   Location is
Your Internet Provider is tracking your torrent activity!  Hide your IP ADDRESS with a VPN!
We strongly recommend using Trust.Zone VPN to anonymize your torrenting. It's FREE!
Get VPN Now for FREE!
Kande (2018) Punjabi Pre-DVDRip x264 AAC by Full4movies

 Download:  
 Info Hash:d9490b5a8f4aaff51d425a55f3463947cd807f14
 Category:Movies > Non-English
 Seeds: 175
 Leechers: 86
 Health:
 Lang:Hindi  Hindi
 Total Size:730.04 MB
 Added By:full4movies
 Date Added:14-05-2018 09:31:08
 Views:38
 Hits:1

 
Details
Description:


General
Complete name                  : Kande (2018) Punjabi Pre-DVDRip x264 AAC by Full4movies.mkv
Format                         : Matroska
Format version                 : Version 4 / Version 2
File size                      : 730 MiB
Duration                       : 1 h 52 min
Overall bit rate               : 910 kb/s
Movie name                     : Kande (2018)  - www.Full4movies.co
Encoded date                   : UTC 2018-05-13 16:22:57
Writing application            : mkvmerge v8.1.0 ('Psychedelic Postcard') 32bit
Writing library                : libebml v1.3.1 + libmatroska v1.4.2

Video
ID                             : 1
Format                         : AVC
Format/Info                    : Advanced Video Codec
Format profile                 : Main@L4
Format settings, CABAC         : Yes
Format settings, RefFrames     : 4 frames
Codec ID                       : V_MPEG4/ISO/AVC
Duration                       : 1 h 52 min
Bit rate                       : 797 kb/s
Width                          : 648 pixels
Height                         : 288 pixels
Display aspect ratio           : 2.25:1
Frame rate mode                : Constant
Frame rate                     : 25.000 FPS
Color space                    : YUV
Chroma subsampling             : 4:2:0
Bit depth                      : 8 bits
Scan type                      : Progressive
Bits/(Pixel*Frame)             : 0.171
Stream size                    : 638 MiB (87%)
Writing library                : x264 core 148 r2708 86b7198
Language                       : Panjabi
Default                        : Yes
Forced                         : No
Color range                    : Limited
Color primaries                : BT.601 PAL
Transfer characteristics       : BT.709
Matrix coefficients            : BT.601

Audio
ID                             : 2
Format                         : AAC
Format/Info                    : Advanced Audio Codec
Format profile                 : LC
Codec ID                       : A_AAC
Duration                       : 1 h 52 min
Bit rate                       : 112 kb/s
Channel(s)                     : 2 channels
Channel positions              : Front: L R
Sampling rate                  : 44.1 kHz
Frame rate                     : 43.066 FPS (1024 SPF)
Compression mode               : Lossy
Delay relative to video        : -23 ms
Stream size                    : 90.0 MiB (12%)
Language                       : Panjabi
Default                        : Yes
Forced                         : No

Screen Shoots


Loading...

Ratings:Not Yet Rated (Log in to rate it)

Tracker:
udp://tracker.coppersurfer.tk:6969/announce


File List: 


Comments

No comments still posted

Loading...
Powered by TorrentTrader v2-svn -|- Page Generated In 0.009384 secs.
www.torrenttrader.org -|- -|- RSS Feed -|- Feed Info
Theme By: Nikkbu