[Login] or [Signup]

First Cams

Xvid/x264



Non-English

Loading...

Thaanaa Serndha Koottam (Gang) (2018) Proper UnCut HDRip HEVC x264 [Dual Audio] [Hindi (Org) + Telug...


Complete Name :Thaanaa Serndha Koottam (Gang) (2018) Proper UnCut HDRip HEVC x264 [Dual Audio] [Hindi (Org) + Telugu + Tamil] Full South Movie Hindi 1.1GB -[SM Team1
Download torrent:    Thaanaa Serndha Koottam (Gang) (2018) Proper UnCut HDRip HEVC x264 [Dual Audio] [Hindi (Org) + Telug....torrent
Info Hash:81e7bea6e4d022708a0e13a7ac1970b3a03120da
Category:Movies  > Non-English
Torrent language:Hindi  
Seeds | Leech:613 | 296
Complete: 2,412
Health:
Total Size:1.03 GB
Downloaded:16 Times
Added By:      AlashAhmed
Date Added:04-11-2018 08:57:pm | Last Edit:  05-11-2018 10:56:pm

 

IMDB
Thaanaa Serndha Koottam
Thaanaa Serndha Koottam Released N/A

Genre Action, Comedy

Director Vignesh Shivan

Writer Vignesh Shivan

Actors Suriya, Keerthi Suresh, RJ Balaji, Saranya Ponvannan

Plot N/A

Link https://www.imdb.com/title/tt6237966/

Last Updated 19-11-2018 16:17:05

Main Technical Comments
New Latest HD Movies Download Link :- https://skymovieshd.org
***********************************



Thaanaa Serndha Koottam (2018) HDRip - 720p - [Hindi (Org)  Telugu  Tamil] (1) (1).mkv
Format                      : Matroska
Format version              : Version 4 / Version 2
File size                   : 1.43 GiB
Duration                    : 2 h 18 min
Overall bit rate mode       : Variable
Overall bit rate            : 1 478 kb/s
Movie name                  : SkymoviesHD.org
Encoded date                : UTC 2018-11-04 18:08:22
Writing application         : mkvmerge v27.0.0 ('Metropolis') 64-bit
Writing library             : libebml v1.3.6 + libmatroska v1.4.9

Video
ID                          : 1
Format                      : AVC
Format/Info                 : Advanced Video Codec
Format profile              : [email protected]
Format settings             : CABAC / 4 Ref Frames
Format settings, CABAC      : Yes
Format settings, ReFrames   : 4 frames
Format settings, GOP        : M=4, N=24
Codec ID                    : V_MPEG4/ISO/AVC
Duration                    : 2 h 18 min
Bit rate                    : 1 198 kb/s
Width                       : 1 280 pixels
Height                      : 536 pixels
Display aspect ratio        : 2.40:1
Frame rate mode             : Constant
Frame rate                  : 24.000 FPS
Color space                 : YUV
Chroma subsampling          : 4:2:0
Bit depth                   : 8 bits
Scan type                   : Progressive
Bits/(Pixel*Frame)          : 0.073
Stream size                 : 1.16 GiB (81%)
Title                       : www.TamilMV.biz
Writing library             : x264 core 155 r2901 7d0ff22
Encoding settings           : cabac=1 / ref=3 / deblock=1:0:0 / analyse=0x3:0x113 / me=hex / subme=7 / psy=1 / psy_rd=1.00:0.00 / mixed_ref=1 / me_range=16 / chroma_me=1 / trellis=1 / 8x8dct=1 / cqm=0 / deadzone=21,11 / fast_pskip=1 / chroma_qp_offset=-2 / threads=17 / lookahead_threads=2 / sliced_threads=0 / nr=0 / decimate=1 / interlaced=0 / bluray_compat=0 / constrained_intra=0 / bframes=3 / b_pyramid=2 / b_adapt=1 / b_bias=0 / direct=1 / weightb=1 / open_gop=0 / weightp=2 / keyint=240 / keyint_min=24 / scenecut=40 / intra_refresh=0 / rc_lookahead=40 / rc=2pass / mbtree=1 / bitrate=1198 / ratetol=1.0 / qcomp=0.60 / qpmin=0 / qpmax=69 / qpstep=4 / cplxblur=20.0 / qblur=0.5 / ip_ratio=1.40 / aq=1:1.00
Language                    : Tamil
Default                     : Yes
Forced                      : No

Audio #1
ID                          : 2
Format                      : MPEG Audio
Format version              : Version 1
Format profile              : Layer 3
Format settings             : Joint stereo / MS Stereo
Codec ID                    : A_MPEG/L3
Codec ID/Hint               : MP3
Duration                    : 2 h 18 min
Bit rate mode               : Variable
Bit rate                    : 96.0 kb/s
Channel(s)                  : 2 channels
Sampling rate               : 48.0 kHz
Frame rate                  : 41.667 FPS (1152 SPF)
Compression mode            : Lossy
Stream size                 : 92.3 MiB (6%)
Title                       : www.TamilMV.biz
Writing library             : LAME3.99r
Encoding settings           : -m j -V 4 -q 3 -lowpass 15.1 --abr 96
Language                    : Hindi
Default                     : Yes
Forced                      : No







New Latest HD Movies Download Link :- https://skymovieshd.org
***********************************
........................................................................


Loading...


Trackers:
udp://tracker.coppersurfer.tk:6969/announce

This Torrent also has backup trackers
URLSeedersLeechersCompleted
http://tracker.torrentyorg.pl/announce000
http://tracker.trackerfix.com:80/announce000

Thaanaa Serndha Koottam (Gang) (2018) Proper UnCut HDRip HEVC x264 [Dual Audio] [Hindi (Org) + Telugu + Tamil] Full South Movie Hindi 1.1GB -[SM Team1
Files
SkyMoviesHD.org- Thaanaa Serndha Koottam (2018) HDRip - 570p - [Hindi (Org) Telugu Tamil] (1) (1).mkv1.03 GB


Similar Torrents
Type Name Size Added S L
Dubs/Dual Audio Suriya Ki Gang (Thaanaa Serndha Koottam) (2018) 48...
547.66 MB 2018-11-04 04:45:41 600 118
Dubs/Dual Audio Thaanaa Serndha Koottam (Gang) (2018) Proper UnCut...
1.46 GB 2018-11-04 20:45:43 341 164

Comments:
No comments still posted
Loading...
Powered by TT | Page Generated In 0.629999 secs.
| RSS Feed | Feed Info