[Login] or [Signup]

First Cams

Xvid/x264



Non-English

Loading...

Jai Lava Kusa (2018) 720p Hindi Dubbed Movie HDRip x264 AAC [Hindi (Original)] by Full4movies


Complete Name :Jai Lava Kusa (2018) 720p Hindi Dubbed Movie HDRip x264 AAC [Hindi (Original)] by Full4movies
Download torrent:    Jai Lava Kusa (2018) 720p Hindi Dubbed Movie HDRip x264 AAC [Hindi (Original)] by Full4movies.torrent
Info Hash:71dcf20f57f3322fbb6eb3bd9f4fa36396fdc22f
Category:Movies  > Non-English
Torrent language:Hindi  
Seeds | Leech:1,257 | 454
Complete: 9,524
Health:
Total Size:1.35 GB
Downloaded:113 Times
Added By:      full4movies
Date Added:13-05-2018 06:37:pm | Last Edit:  13-09-2018 04:53:pm

 

Main Technical Comments


General
Complete name                  : Jai Lava Kusa (2018) 720p Hindi Dubbed Movie HDRip x264 AAC [Hindi (Original)] by Full4movies.mkv
Format                         : Matroska
Format version                 : Version 4 / Version 2
File size                      : 1.35 GiB
Duration                       : 2 h 29 min
Overall bit rate mode          : Variable
Overall bit rate               : 1 289 kb/s
Movie name                     : Jai Lava Kusa (2018) Hindi - www.Full4movies.co
Encoded date                   : UTC 2018-05-13 15:23:41
Writing application            : mkvmerge v8.1.0 ('Psychedelic Postcard') 32bit
Writing library                : libebml v1.3.1 + libmatroska v1.4.2

Video
ID                             : 1
Format                         : AVC
Format/Info                    : Advanced Video Codec
Format profile                 : [email protected]
Format settings, CABAC         : Yes
Format settings, RefFrames     : 4 frames
Codec ID                       : V_MPEG4/ISO/AVC
Duration                       : 2 h 29 min
Bit rate                       : 1 198 kb/s
Width                          : 1 280 pixels
Height                         : 544 pixels
Display aspect ratio           : 2.35:1
Frame rate mode                : Constant
Frame rate                     : 25.000 FPS
Color space                    : YUV
Chroma subsampling             : 4:2:0
Bit depth                      : 8 bits
Scan type                      : Progressive
Bits/(Pixel*Frame)             : 0.069
Stream size                    : 1.25 GiB (93%)
Writing library                : x264 core 152 r2851 ba24899
Language                       : Telugu
Default                        : Yes
Forced                         : No

Audio
ID                             : 2
Format                         : MPEG Audio
Format version                 : Version 1
Format profile                 : Layer 3
Mode                           : Joint stereo
Mode extension                 : MS Stereo
Codec ID                       : A_MPEG/L3
Codec ID/Hint                  : MP3
Duration                       : 2 h 29 min
Bit rate mode                  : Variable
Bit rate                       : 89.0 kb/s
Nominal bit rate               : 96.0 kb/s
Channel(s)                     : 2 channels
Sampling rate                  : 48.0 kHz
Frame rate                     : 41.667 FPS (1152 SPF)
Compression mode               : Lossy
Stream size                    : 95.4 MiB (7%)
Writing library                : LAME3.99r
Encoding settings              : -m j -V 4 -q 3 -lowpass 15.1 --abr 96
Language                       : Hindi
Default                        : Yes
Forced                         : No

Screen Shoots
........................................................................


Loading...


Trackers:
udp://tracker.coppersurfer.tk:6969/announce

Jai Lava Kusa (2018) 720p Hindi Dubbed Movie HDRip x264 AAC [Hindi (Original)] by Full4movies
Files
Jai Lava Kusa (2018) 720p Hindi Dubbed Movie HDRip x264 AAC [Hindi (Original)] by Full4movies.mkv1.35 GB


Similar Torrents
Type Name Size Added S L
Non-English Jai Lava Kusa (2018) Hindi Dubbed Movie HD TVRip x...
1.06 GB 2018-05-13 14:56:23 577 1671

Comments:
No comments still posted
Loading...
Powered by TT | Page Generated In 0.039775 secs.
| RSS Feed | Feed Info