[Login] or [Signup]

First Cams

Xvid/x264



Non-English

Loading...

HATTRICK 2007 Hindi Movie HEVC 720P NETFLIXDL AVC DDP5 1-[SM Team]


Complete Name :HATTRICK 2007 Hindi Movie HEVC 720P NETFLIXDL AVC DDP5 1-[SM Team]
Download torrent:    HATTRICK 2007 Hindi Movie HEVC 720P NETFLIXDL AVC DDP5 1-[SM Team].torrent
Info Hash:188355168ed7c7185bf89aecf2097c7d5fd2b4f3
Category:Movies  > Non-English
Torrent language:Hindi  
Seeds | Leech:206 | 68
Complete: 882
Health:
Total Size:591.05 MB
Downloaded:10 Times
Added By:      AlashAhmed
Date Added:02-11-2018 08:56:pm | Last Edit:  04-11-2018 11:57:am

 

IMDB
Hattrick
Hattrick Released 16 Mar 2007

Genre Comedy, Drama, Romance

Director Milan Luthria

Writer Rajat Arora (story, screenplay and dialogue)

Actors Nana Patekar, Danny Denzongpa, Paresh Rawal, Kunal Kapoor

Plot Despite of cricket fever, there are two people in India who dislike it's influence over their lives. The first is Dr. Satyajit Chavan, who will not permit anyone in his home nor the ...

Link http://www.imdb.com/title/tt0979891

Last Updated 16-11-2018 13:34:32
4.2

Votes 371

Main Technical Comments
New Latest HD Movies Download Link :- https://skymovieshd.org
***********************************



Video
ID                                       : 1
Format                                   : AVC
Format/Info                              : Advanced Video Codec
Format profile                           : [email protected]
Format settings, CABAC                   : Yes
Format settings, ReFrames                : 3 frames
Codec ID                                 : V_MPEG4/ISO/AVC
Duration                                 : 1h 49mn
Bit rate mode                            : Variable
Bit rate                                 : 4 420 Kbps
Maximum bit rate                         : 6 630 Kbps
Width                                    : 1 920 pixels
Height                                   : 1 080 pixels
Display aspect ratio                     : 16:9
Frame rate mode                          : Constant
Frame rate                               : 25.000 fps
Color space                              : YUV
Chroma subsampling                       : 4:2:0
Bit depth                                : 8 bits
Scan type                                : Progressive
Bits/(Pixel*Frame)                       : 0.085
Stream size                              : 3.30 GiB (90%)
Writing library                          : x264 core 148 r2715 7e75228
Encoding settings                        : cabac=1 / ref=3 / deblock=1:0:0 / *censored*yse=0x1:0x111 / me=umh / subme=10 / psy=1 / psy_rd=1.00:0.00 / mixed_ref=1 / me_range=24 / chroma_me=1 / trellis=2 / 8x8dct=0 / cqm=0 / deadzone=21,11 / fast_pskip=1 / chroma_qp_offset=-2 / threads=8 / lookahead_threads=1 / sliced_threads=0 / nr=0 / decimate=1 / interlaced=0 / bluray_compat=0 / stitchable=1 / constrained_intra=0 / bframes=2 / b_pyramid=0 / b_adapt=2 / b_bias=0 / direct=3 / weightb=1 / open_gop=0 / weightp=2 / keyint=50 / keyint_min=26 / scenecut=0 / intra_refresh=0 / rc_lookahead=50 / rc=2pass / mbtree=1 / bitrate=4420 / ratetol=1.0 / qcomp=0.50 / qpmin=6 / qpmax=51 / qpstep=4 / cplxblur=20.0 / qblur=0.5 / vbv_maxrate=6630 / vbv_bufsize=8840 / nal_hrd=vbr / filler=0 / ip_ratio=1.40 / aq=1:1.00
Default                                  : Yes
Forced                                   : No
Encoded date                             : UTC 2018-09-02 07:02:43
HANDLER_NAME                             : Audio Media Handler
DURATION                                 : 01:49:26.048000000
NUMBER_OF_FRAMES                         : 205189
NUMBER_OF_BYTES                          : 315170304
_STATISTICS_WRITING_APP                  : mkvmerge v11.0.0 ('Alive') 64bit
_STATISTICS_WRITING_DATE_UTC             : 2018-11-01 10:54:44
_STATISTICS_TAGS                         : BPS DURATION NUMBER_OF_FRAMES NUMBER_OF_BYTES

Audio
ID                                       : 2
Format                                   : AC-3
Format/Info                              : Audio Coding 3
Mode extension                           : CM (complete main)
Format settings, Endianness              : Big
Codec ID                                 : A_AC3
Duration                                 : 1h 49mn
Bit rate mode                            : Constant
Bit rate                                 : 384 Kbps
Channel(s)                               : 6 channels
Channel positions                        : Front: L C R, Side: L R, LFE
Sampling rate                            : 48.0 KHz
Bit depth                                : 16 bits
Compression mode                         : Lossy
Stream size                              : 301 MiB (8%)
Default                                  : Yes
Forced                                   : No

Text
ID                                       : 3
Format                                   : UTF-8
Codec ID                                 : S_TEXT/UTF8
Codec ID/Info                            : UTF-8 Plain Text
Title                                    : English
Language                                 : English
Default                                  : Yes
Forced                                   : Yes












New Latest HD Movies Download Link :- https://skymovieshd.org
***********************************
........................................................................


Loading...


Trackers:
udp://tracker.coppersurfer.tk:6969/announce

HATTRICK 2007 Hindi Movie HEVC 720P NETFLIXDL AVC DDP5 1-[SM Team]
Files
HATTRICK 2007 570P NETFLIXDL HEVC AVC DDP5 1 (SkyMoviesHD.org).mkv591.05 MB


Similar Torrents
Type Name Size Added S L
Divx/Xvid HATTRICK 2007 Hindi Movie 720P NETFLIXDL AVC DDP5 ...
1.08 GB 2018-11-02 20:46:51 580 223

Comments:
No comments still posted
Loading...
Powered by TT | Page Generated In 0.242083 secs.
| RSS Feed | Feed Info