[Login] or [Signup]

First Cams

Xvid/x264



Non-English

Loading...

Gold 2018 Hindi 720p WEB-DL DD 5.1 x264 ESub [MW]


Complete Name :Gold 2018 Hindi 720p WEB-DL DD 5.1 x264 ESub [MW]
Download torrent:    Gold 2018 Hindi 720p WEB-DL DD 5.1 x264 ESub [MW].torrent
Info Hash:e56e14990886a5a1af58b5fa08dfc4722e79d30b
Category:Movies  > Non-English
Torrent language:Hindi  
Seeds | Leech:604 | 482
Complete: 2,535
Health:
Total Size:1.24 GB
Downloaded:12 Times
Added By:      MovieFreak
Date Added:31-10-2018 08:57:am | Last Edit:  01-11-2018 03:04:pm

 

IMDB
Gold
Gold Released 15 Aug 2018

Genre Drama, History, Sport

Director Reema Kagti

Writer Rajesh Devraj (story), Reema Kagti (story), Reema Kagti (screenplay), Javed Akhtar (dialogue)

Actors Akshay Kumar, Mouni Roy, Kunal Kapoor, Amit Sadh

Plot Set in 1948, the historic story of India's first Olympic medal post their independence.

Link http://www.imdb.com/title/tt6173990

Last Updated 16-11-2018 14:46:11
7.9

Votes 5,516

Main Technical Comments




General
Format                                   : Matroska
Format version                           : Version 4 / Version 2
File size                                : 1.24 GiB
Duration                                 : 2 h 25 min
Overall bit rate                         : 1 218 kb/s

Video
ID                                       : 1
Format                                   : AVC
Format/Info                              : Advanced Video Codec
Format profile                           : [email protected]
Format settings                          : CABAC / 5 Ref Frames
Format settings, CABAC                   : Yes
Format settings, RefFrames               : 5 frames
Codec ID                                 : V_MPEG4/ISO/AVC
Duration                                 : 2 h 25 min
Bit rate                                 : 1 000 kb/s
Width                                    : 1 280 pixels
Height                                   : 542 pixels
Display aspect ratio                     : 2.35:1
Frame rate mode                          : Constant
Frame rate                               : 25.000 FPS
Color space                              : YUV
Chroma subsampling                       : 4:2:0
Bit depth                                : 8 bits
Scan type                                : Progressive
Bits/(Pixel*Frame)                       : 0.058
Stream size                              : 1.01 GiB (81%)
Writing library                          : x264 core 155 r2901 7d0ff22
Default                                  : Yes
Forced                                   : No

Audio
ID                                       : 2
Format                                   : AC-3
Format/Info                              : Audio Coding 3
Codec ID                                 : A_AC3
Duration                                 : 2 h 25 min
Bit rate mode                            : Constant
Bit rate                                 : 224 kb/s
Channel(s)                               : 6 channels
Channel positions                        : Front: L C R, Side: L R, LFE
Sampling rate                            : 48.0 kHz
Frame rate                               : 31.250 FPS (1536 SPF)
Bit depth                                : 16 bits
Compression mode                         : Lossy
Stream size                              : 234 MiB (18%)
Language                                 : Hindi
Service kind                             : Complete Main
Default                                  : Yes
Forced                                   : No

Text
ID                                       : 3
Format                                   : UTF-8
Codec ID                                 : S_TEXT/UTF8
Codec ID/Info                            : UTF-8 Plain Text
Duration                                 : 2 h 17 min
Bit rate                                 : 67 b/s
Count of elements                        : 2181
Stream size                              : 67.9 KiB (0%)
Language                                 : English
Default                                  : Yes
Forced                                   : No


https://pichub.site/image/7xVL5
https://pichub.site/image/7xcQh
https://pichub.site/image/7xwdj
https://pichub.site/image/7xyGr
https://pichub.site/image/7xCZk
https://pichub.site/image/7xiIQ

........................................................................


Loading...


Trackers:
udp://tracker.coppersurfer.tk:6969/announce

Gold 2018 Hindi 720p WEB-DL DD 5.1 x264 ESub [MW]
Files
Gold 2018 Hindi 720p WEB-DL DD 5.1 x264 ESub [MW].mkv1.24 GB


Similar Torrents
Type Name Size Added S L
HD Gold 2018 Hindi 720p DTHRip x264 AAC 5.1 { TaRa }....
1.18 GB 2018-10-29 10:09:10 858 444
Non-English Gold 2018 WebRip Hindi 720p x264 AAC 5.1 ESub - mk...
1.27 GB 2018-10-30 08:02:47 819 575
Non-English Gold 2018 Hindi 720p PRE-DVDRip x264 AAC [MW]
1.35 GB 2018-08-16 17:43:05 644 223
Non-English Gold.2018.Hindi.720p.HDRip.x264.AAC.-.Hon3yHD
1.35 GB 2018-10-30 19:09:23 596 306
Cam/TS Gold 2018 Hindi Movies PDVDRip x264 AAC Clean Audi...
705.33 MB 2018-08-16 06:23:53 581 446
HD Gold 2018 x264 720p HD Esub Hindi GOPISAHI
726.46 MB 2018-10-30 09:53:49 156 100
Non-English Gold.2018.Hindi.720p.HDRip.x264.AC3.5.1-.Hon3y
3.00 GB 2018-10-30 15:30:38 127 62
h.264/x264 Gold 2018 Hindi PRE-DVDRip x264 AAC { TaRa }.mkv
668.90 MB 2018-08-15 21:12:11 119 37
h.264/x264 Going.For.Gold.2018.HDRip.XviD.AC3-EVO[EtMovies]
1.35 GB 2018-07-16 03:43:16 94 59
HD Gold 2018 Hindi 1080p AMZN WEB-DL H264 DDP5.1 - Nb...
7.32 GB 2018-10-30 18:23:59 72 30

Comments:
No comments still posted
Loading...
Powered by TT | Page Generated In 0.630982 secs.
| RSS Feed | Feed Info