[Login] or [Signup]

First Cams

Xvid/x264



Non-English

Loading...

Baazaar 2018 Hindi 720p PRE DVDRip x264 [MW]


Complete Name :Baazaar 2018 Hindi 720p PRE DVDRip x264 [MW]
Download torrent:    Baazaar 2018 Hindi 720p PRE DVDRip x264 [MW].torrent
Info Hash:2a977e2e5fce0436335bbfdc179ad12cdcfbcbd2
Category:Movies  > Non-English
Torrent language:Hindi  
Seeds | Leech:892 | 296
Complete: 8,813
Health:
Total Size:1.37 GB
Downloaded:13 Times
Added By:      MovieFreak
Date Added:27-10-2018 01:36:pm | Last Edit:  29-10-2018 07:14:am

 

IMDB
Baazaar
Baazaar Released 26 Oct 2018

Genre Crime, Drama, Thriller

Director Gauravv K. Chawla

Writer Aseem Arora, Aseem Arora, Parveez Sheikh

Actors Radhika Apte, Saif Ali Khan, Chitrangda Singh, Rohan Vinod Mehra

Plot Baazaar is a 2018 film starring Saif Ali Khan, Chitrangada Singh and Radhika Apte. With a plot revolving around stock-trading, the film, according to director Gauravv K. Chawla's is about making it in the big bad world of Mumbai.

Link http://www.imdb.com/title/tt6514196

Last Updated 16-11-2018 13:43:52

Main Technical Comments




General
Format                                   : Matroska
Format version                           : Version 4 / Version 2
File size                                : 1.37 GiB
Duration                                 : 2 h 14 min
Overall bit rate                         : 1 462 kb/s

Video
ID                                       : 1
Format                                   : AVC
Format/Info                              : Advanced Video Codec
Format profile                           : [email protected]
Format settings                          : CABAC / 4 Ref Frames
Format settings, CABAC                   : Yes
Format settings, RefFrames               : 4 frames
Codec ID                                 : V_MPEG4/ISO/AVC
Duration                                 : 2 h 14 min
Bit rate                                 : 1 200 kb/s
Width                                    : 1 280 pixels
Height                                   : 540 pixels
Display aspect ratio                     : 2.40:1
Frame rate mode                          : Constant
Frame rate                               : 25.000 FPS
Color space                              : YUV
Chroma subsampling                       : 4:2:0
Bit depth                                : 8 bits
Scan type                                : Progressive
Bits/(Pixel*Frame)                       : 0.069
Stream size                              : 1.13 GiB (82%)
Writing library                          : x264 core 155 r2901 7d0ff22
Default                                  : Yes
Forced                                   : No

Audio
ID                                       : 2
Format                                   : AAC
Format/Info                              : Advanced Audio Codec
Format profile                           : LC
Codec ID                                 : A_AAC-2
Duration                                 : 2 h 14 min
Bit rate                                 : 256 kb/s
Channel(s)                               : 2 channels
Channel positions                        : Front: L R
Sampling rate                            : 48.0 kHz
Frame rate                               : 46.875 FPS (1024 SPF)
Compression mode                         : Lossy
Stream size                              : 246 MiB (18%)
Language                                 : Hindi
Default                                  : Yes
Forced                                   : No


https://pichub.site/image/7DmX8
https://pichub.site/image/7DGMJ
https://pichub.site/image/7DUph
https://pichub.site/image/7DNi5
https://pichub.site/image/7Dvbj
https://pichub.site/image/7D0cr

........................................................................


Loading...


Trackers:
udp://tracker.coppersurfer.tk:6969/announce

Baazaar 2018 Hindi 720p PRE DVDRip x264 [MW]
Files
Baazaar 2018 Hindi 720p PRE DVDRip x264 [MW].mkv1.37 GB


Similar Torrents
Type Name Size Added S L
h.264/x264 Baazaar (2018) Full Movie Hindi 480p pDVDRip.mkv
698.29 MB 2018-10-28 01:08:49 1846 1362
h.264/x264 Baazaar (2018) [ Bolly4u.trade] Pre DVDRip Hindi x...
737.49 MB 2018-10-28 07:10:30 1531 1090
Cam/TS Baazaar (2018) Hindi 720p Pre-DVDRip x264 AAC - Do...
1.04 GB 2018-10-27 03:25:02 1508 779
Non-English Baazaar (2018) Hindi Desi pDVDRip x264 AAC Bollywo...
728.90 MB 2018-10-27 06:39:14 317 92
Cam/TS Baazaar (2018) Hindi Desi pDVDRip x264 AAC Bollywo...
1.15 GB 2018-10-27 06:33:15 272 99
Non-English Baazaar 2018 PreDvd Hindi 720p x264 AAC - mkvCinem...
1.12 GB 2018-10-27 06:48:12 163 75

Comments:
No comments still posted
Loading...
Powered by TT | Page Generated In 0.363328 secs.
| RSS Feed | Feed Info