[Login] or [Signup]

First Cams

Xvid/x264



Non-English

Loading...

Badhaai Ho 2018 Hindi 720p PRE-DVDRip x264 [MW]


Complete Name :Badhaai Ho 2018 Hindi 720p PRE-DVDRip x264 [MW]
Download torrent:    Badhaai Ho 2018 Hindi 720p PRE-DVDRip x264 [MW].torrent
Info Hash:c574a44a34a0a89d6c722de753b3d06a57c40d9a
Category:Movies  > Non-English
Torrent language:Hindi  
Seeds | Leech:1,440 | 1,048
Complete: 11,244
Health:
Total Size:1.07 GB
Downloaded:15 Times
Added By:      MovieFreak
Date Added:20-10-2018 10:42:am | Last Edit:  21-10-2018 09:34:pm

 

IMDB
Badhaai Ho
Badhaai Ho Released 19 Oct 2018

Genre Comedy, Drama

Director Amit Ravindernath Sharma

Writer Akshat Ghildial (screenplay and dialogue), Akshat Ghildial (story), Jyoti Kapoor (story), Shantanu Srivastava (story)

Actors Ayushmann Khurrana, Sanya Malhotra, Neena Gupta, Gajraj Rao

Plot A man faces embarrassment in the society when he finds out his mother is pregnant

Link http://www.imdb.com/title/tt7725596

Last Updated 19-11-2018 16:37:20
8.3

Votes 4,403

Main Technical Comments




General
Format                                   : Matroska
Format version                           : Version 4 / Version 2
File size                                : 1.07 GiB
Duration                                 : 1 h 54 min
Overall bit rate                         : 1 330 kb/s

Video
ID                                       : 1
Format                                   : AVC
Format/Info                              : Advanced Video Codec
Format profile                           : [email protected]
Format settings                          : CABAC / 4 Ref Frames
Format settings, CABAC                   : Yes
Format settings, RefFrames               : 4 frames
Codec ID                                 : V_MPEG4/ISO/AVC
Duration                                 : 1 h 54 min
Bit rate                                 : 1 200 kb/s
Width                                    : 1 280 pixels
Height                                   : 568 pixels
Display aspect ratio                     : 2.25:1
Frame rate mode                          : Constant
Frame rate                               : 29.970 (30000/1001) FPS
Color space                              : YUV
Chroma subsampling                       : 4:2:0
Bit depth                                : 8 bits
Scan type                                : Progressive
Bits/(Pixel*Frame)                       : 0.055
Stream size                              : 986 MiB (90%)
Writing library                          : x264 core 155 r2901 7d0ff22
Default                                  : Yes
Forced                                   : No

Audio
ID                                       : 2
Format                                   : AAC
Format/Info                              : Advanced Audio Codec
Format profile                           : LC
Codec ID                                 : A_AAC-2
Duration                                 : 1 h 54 min
Bit rate                                 : 129 kb/s
Channel(s)                               : 2 channels
Channel positions                        : Front: L R
Sampling rate                            : 48.0 kHz
Frame rate                               : 46.875 FPS (1024 SPF)
Compression mode                         : Lossy
Stream size                              : 106 MiB (10%)
Language                                 : Hindi
Default                                  : Yes
Forced                                   : No


https://pichub.site/image/dpWgY
https://pichub.site/image/dpjMt
https://pichub.site/image/dpqt4
https://pichub.site/image/d24pp
https://pichub.site/image/d2fey
https://pichub.site/image/d2Mcb

........................................................................


Loading...


Trackers:
udp://tracker.coppersurfer.tk:6969/announce

Badhaai Ho 2018 Hindi 720p PRE-DVDRip x264 [MW]
Files
Badhaai Ho 2018 Hindi 720p PRE-DVDRip x264 [MW].mkv1.07 GB


Similar Torrents
Type Name Size Added S L
Non-English Badhaai.Ho.2018.Hindi.(1.45GB).PRE.x264.AAC.-.Hon3...
1.46 GB 2018-10-19 14:54:58 2283 1176
h.264/x264 Badhaai Ho (2018) Full Movie Hindi 480p pDVDRip.mk...
680.98 MB 2018-10-19 18:22:26 1350 841
Cam/TS Badhaai Ho (2018) Bollywood Hindi Movie PerDVDRip ...
831.44 MB 2018-10-19 11:46:42 1281 875
Non-English Badhaai Ho 2018 PreDvd Hindi 720p x264 AAC - mkvCi...
981.91 MB 2018-10-20 06:59:10 839 573
Non-English Badhaai.Ho.2018.Hindi.(1CD).PRE.x264.AAC.-.Hon3yHD
704.05 MB 2018-10-19 14:43:25 453 208
Cam/TS Badhaai Ho (2018) Hindi Pre-DVDRip x264 AAC by Ful...
680.98 MB 2018-10-19 14:32:22 252 85

Comments:
No comments still posted
Loading...
Powered by TT | Page Generated In 0.643312 secs.
| RSS Feed | Feed Info