[Login] or [Signup]

First Cams

Xvid/x264



Non-English

Loading...

Satyameva Jayate 2018 Hindi 1080p WEB-DL DD 5.1 x264 ESub [MW]


Complete Name :Satyameva Jayate 2018 Hindi 1080p WEB-DL DD 5.1 x264 ESub [MW]
Download torrent:    Satyameva Jayate 2018 Hindi 1080p WEB-DL DD 5.1 x264 ESub [MW].torrent
Info Hash:23efd96e0a4264fffb28d0d38934454c00c43f64
Category:Movies  > Non-English
Torrent language:Hindi  
Seeds | Leech:624 | 437
Complete: 2,739
Health:
Total Size:2.31 GB
Downloaded:11 Times
Added By:      MovieFreak
Date Added:19-10-2018 10:32:am | Last Edit:  20-10-2018 04:29:pm

 

Main Technical Comments




General
Format                                   : Matroska
Format version                           : Version 4 / Version 2
File size                                : 2.31 GiB
Duration                                 : 2 h 19 min
Overall bit rate                         : 2 371 kb/s

Video
ID                                       : 1
Format                                   : AVC
Format/Info                              : Advanced Video Codec
Format profile                           : [email protected]
Format settings                          : CABAC / 4 Ref Frames
Format settings, CABAC                   : Yes
Format settings, RefFrames               : 4 frames
Codec ID                                 : V_MPEG4/ISO/AVC
Duration                                 : 2 h 19 min
Bit rate                                 : 2 000 kb/s
Width                                    : 1 920 pixels
Height                                   : 800 pixels
Display aspect ratio                     : 2.40:1
Frame rate mode                          : Constant
Frame rate                               : 24.000 FPS
Color space                              : YUV
Chroma subsampling                       : 4:2:0
Bit depth                                : 8 bits
Scan type                                : Progressive
Bits/(Pixel*Frame)                       : 0.054
Stream size                              : 1.94 GiB (84%)
Writing library                          : x264 core 155 r2901 7d0ff22
Default                                  : Yes
Forced                                   : No

Audio
ID                                       : 2
Format                                   : E-AC-3
Format/Info                              : Enhanced Audio Coding 3
Codec ID                                 : A_EAC3
Duration                                 : 2 h 19 min
Bit rate mode                            : Constant
Bit rate                                 : 384 kb/s
Channel(s)                               : 6 channels
Channel positions                        : Front: L C R, Side: L R, LFE
Sampling rate                            : 48.0 kHz
Frame rate                               : 187.500 FPS (256 SPF)
Compression mode                         : Lossy
Stream size                              : 383 MiB (16%)
Language                                 : Hindi
Service kind                             : Complete Main
Default                                  : Yes
Forced                                   : No

Text
ID                                       : 3
Format                                   : UTF-8
Codec ID                                 : S_TEXT/UTF8
Codec ID/Info                            : UTF-8 Plain Text
Duration                                 : 2 h 12 min
Bit rate                                 : 42 b/s
Count of elements                        : 1306
Stream size                              : 41.0 KiB (0%)
Language                                 : English
Default                                  : Yes
Forced                                   : No


https://pichub.site/image/doO00
https://pichub.site/image/doRFV
https://pichub.site/image/doDET
https://pichub.site/image/doEuN
https://pichub.site/image/dod3D
https://pichub.site/image/doVaZ

........................................................................


Loading...


Trackers:
udp://tracker.coppersurfer.tk:6969/announce

Satyameva Jayate 2018 Hindi 1080p WEB-DL DD 5.1 x264 ESub [MW]
Files
Satyameva Jayate 2018 Hindi 1080p WEB-DL DD 5.1 x264 ESub [MW].mkv2.31 GB


Similar Torrents
Type Name Size Added S L
Cam/TS SATYAMEVA JAYATE 2018 Hindi New 720p PRE-x264-Line...
1.70 GB 2018-08-17 08:12:54 3644 2879
h.264/x264 Satyameva Jayate 2018 Hindi 720p PRE-DVDRip x264 A...
1.01 GB 2018-08-16 07:18:56 1995 980
Non-English Satyameva Jayate 2018 Hindi 720p PRE-DVDRip x264 A...
1.29 GB 2018-08-16 17:42:28 1612 777
Non-English mkvCinemas.live - Satyameva Jayate 2018 Hindi Desi...
1.12 GB 2018-08-21 07:38:52 1532 1303
Cam/TS Satyameva Jayate (2018) Hindi 720p Pre-DVDRip x264...
1.01 GB 2018-08-16 01:44:08 1191 519
Non-English Satyameva.Jayate.2018.Hindi.720p.HDRip.x264.AAC.-....
1.30 GB 2018-10-19 10:56:15 888 675
HD Satyameva Jayate (2018) Hindi HDRip x264 AAC Bolly...
1.18 GB 2018-10-19 06:51:18 711 243
h.264/x264 Satyameva Jayate (2018) Hindi 720p HDRIp x264 AAC ...
1.07 GB 2018-10-19 00:11:00 591 366
h.264/x264 Satyameva.Jayate.(2018).New.Source.PreDvDRip .720p...
1.15 GB 2018-08-17 01:47:54 450 916
h.264/x264 Satyameva Jayate 2018 Hindi PRE-DVDRip x264 AAC { ...
695.76 MB 2018-08-15 20:40:16 378 197

Comments:
No comments still posted
Loading...
Powered by TT | Page Generated In 0.050163 secs.
| RSS Feed | Feed Info