[Login] or [Signup]

First Cams

Xvid/x264



Non-English

Loading...

Namaste England 2018 Hindi 720p PRE-DVDRip x264 [MW]


Complete Name :Namaste England 2018 Hindi 720p PRE-DVDRip x264 [MW]
Download torrent:    Namaste England 2018 Hindi 720p PRE-DVDRip x264 [MW].torrent
Info Hash:21a037314f789f2538f49ba06af0dc1923523872
Category:Movies  > Non-English
Torrent language:Hindi  
Seeds | Leech:1,348 | 733
Complete: 5,913
Health:
Total Size:1.10 GB
Downloaded:14 Times
Added By:      MovieFreak
Date Added:19-10-2018 10:29:am | Last Edit:  20-10-2018 04:30:pm

 

IMDB
Namaste England
Namaste England Released 19 Oct 2018

Genre Comedy, Romance

Director Vipul Amrutlal Shah

Writer Suresh Nair, Ritesh Shah

Actors Arjun Kapoor, Parineeti Chopra, Shreya Mehta, Hiten Patel

Plot Namaste England, starring Arjun Kapoor and Parineeti Chopra is a romantic comedy directed and co-produced by Vipul Amrutlal Shah. The film is the sequel to Namastey London (2007).

Link http://www.imdb.com/title/tt7607940

Last Updated 16-11-2018 13:53:45

Main Technical Comments




General
Format                                   : Matroska
Format version                           : Version 4 / Version 2
File size                                : 1.10 GiB
Duration                                 : 2 h 8 min
Overall bit rate                         : 1 228 kb/s

Video
ID                                       : 1
Format                                   : AVC
Format/Info                              : Advanced Video Codec
Format profile                           : [email protected]
Format settings                          : CABAC / 4 Ref Frames
Format settings, CABAC                   : Yes
Format settings, RefFrames               : 4 frames
Codec ID                                 : V_MPEG4/ISO/AVC
Duration                                 : 2 h 8 min
Bit rate                                 : 1 100 kb/s
Width                                    : 1 280 pixels
Height                                   : 544 pixels
Display aspect ratio                     : 2.35:1
Frame rate mode                          : Constant
Frame rate                               : 25.000 FPS
Color space                              : YUV
Chroma subsampling                       : 4:2:0
Bit depth                                : 8 bits
Scan type                                : Progressive
Bits/(Pixel*Frame)                       : 0.063
Stream size                              : 1 004 MiB (89%)
Writing library                          : x264 core 155 r2901 7d0ff22
Default                                  : Yes
Forced                                   : No

Audio
ID                                       : 2
Format                                   : AAC
Format/Info                              : Advanced Audio Codec
Format profile                           : LC
Codec ID                                 : A_AAC-2
Duration                                 : 2 h 8 min
Bit rate                                 : 129 kb/s
Channel(s)                               : 2 channels
Channel positions                        : Front: L R
Sampling rate                            : 48.0 kHz
Frame rate                               : 46.875 FPS (1024 SPF)
Compression mode                         : Lossy
Stream size                              : 118 MiB (10%)
Language                                 : English
Default                                  : Yes
Forced                                   : No


https://pichub.site/image/drWTs
https://pichub.site/image/drjuY
https://pichub.site/image/drqs6
https://pichub.site/image/dofat
https://pichub.site/image/doM5p
https://pichub.site/image/doJ84

........................................................................


Loading...


Trackers:
udp://tracker.coppersurfer.tk:6969/announce

Namaste England 2018 Hindi 720p PRE-DVDRip x264 [MW]
Files
Namaste England 2018 Hindi 720p PRE-DVDRip x264 [MW].mkv1.10 GB


Similar Torrents
Type Name Size Added S L
Non-English Namaste.England.2018.Hindi.(1.45GB).PRE.x264.AAC.-...
1.47 GB 2018-10-18 19:21:56 859 327
Cam/TS Namaste England (2018) Hindi 720p Pre-DVDRip x264 ...
1,007.84 MB 2018-10-18 20:19:04 368 193
Cam/TS Namaste England (2018) Hindi Pre-DVDRip x264 AAC b...
722.80 MB 2018-10-19 14:38:19 218 108
DVD Namaste England (2018) 1-3 Desi Pre-DVDRip x264 AA...
1.21 GB 2018-11-13 12:19:52 186 180
Non-English Namaste England 2018 PreDvd Hindi 720p x264 AAC - ...
991.86 MB 2018-10-18 18:55:55 183 73
Non-English Namaste.England.2018.Hindi.(1CD).PRE.x264.AAC.-.Ho...
704.92 MB 2018-10-18 19:11:42 143 59
Video VivThomas 18 10 24 Amirah Adara And Cristal Caitli...
200.67 MB 2018-10-24 10:10:23 25 20

Comments:
No comments still posted
Loading...
Powered by TT | Page Generated In 0.658715 secs.
| RSS Feed | Feed Info