[Login] or [Signup]

First Cams

Xvid/x264



Non-English

Loading...

Sanju 2018 Hindi 720p NF WEB-DL x264 ESub [MW]


Complete Name :Sanju 2018 Hindi 720p NF WEB-DL x264 ESub [MW]
Download torrent:    Sanju 2018 Hindi 720p NF WEB-DL x264 ESub [MW].torrent
Info Hash:dea3ac35b5ba4758f22640b5b6279218a50aac72
Category:Movies  > Non-English
Torrent language:Hindi  
Seeds | Leech:339 | 304
Complete: 2,725
Health:
Total Size:1.36 GB
Downloaded:11 Times
Added By:      MovieFreak
Date Added:15-10-2018 01:49:pm | Last Edit:  16-10-2018 10:21:pm

 

IMDB
Sanju
Sanju Released 29 Jun 2018

Genre Biography, Drama

Director Rajkumar Hirani

Writer Rajkumar Hirani, Abhijat Joshi

Actors Ranbir Kapoor, Paresh Rawal, Manisha Koirala, Vicky Kaushal

Plot Sanju is a biopic of the controversial life of actor Sanjay Dutt: his film career, jail sentence and personal life.

Link http://www.imdb.com/title/tt6452574

Last Updated 16-11-2018 13:34:17
8.3

Votes 30,730

Main Technical Comments




General
Format                                   : Matroska
Format version                           : Version 4 / Version 2
File size                                : 1.36 GiB
Duration                                 : 2 h 38 min
Overall bit rate                         : 1 228 kb/s

Video
ID                                       : 1
Format                                   : AVC
Format/Info                              : Advanced Video Codec
Format profile                           : [email protected]
Format settings                          : CABAC / 4 Ref Frames
Format settings, CABAC                   : Yes
Format settings, RefFrames               : 4 frames
Codec ID                                 : V_MPEG4/ISO/AVC
Duration                                 : 2 h 38 min
Bit rate                                 : 1 100 kb/s
Width                                    : 1 280 pixels
Height                                   : 536 pixels
Display aspect ratio                     : 2.40:1
Frame rate mode                          : Constant
Frame rate                               : 24.000 FPS
Color space                              : YUV
Chroma subsampling                       : 4:2:0
Bit depth                                : 8 bits
Scan type                                : Progressive
Bits/(Pixel*Frame)                       : 0.067
Stream size                              : 1.22 GiB (89%)
Writing library                          : x264 core 155 r2901 7d0ff22
Default                                  : Yes
Forced                                   : No

Audio
ID                                       : 2
Format                                   : AAC
Format/Info                              : Advanced Audio Codec
Format profile                           : LC
Codec ID                                 : A_AAC-2
Duration                                 : 2 h 38 min
Bit rate                                 : 128 kb/s
Channel(s)                               : 2 channels
Channel positions                        : Front: L R
Sampling rate                            : 48.0 kHz
Frame rate                               : 46.875 FPS (1024 SPF)
Compression mode                         : Lossy
Stream size                              : 146 MiB (10%)
Language                                 : Hindi
Default                                  : Yes
Forced                                   : No

Text #1
ID                                       : 3
Format                                   : UTF-8
Codec ID                                 : S_TEXT/UTF8
Codec ID/Info                            : UTF-8 Plain Text
Duration                                 : 2 h 37 min
Bit rate                                 : 51 b/s
Count of elements                        : 1857
Stream size                              : 59.3 KiB (0%)
Language                                 : English
Default                                  : No
Forced                                   : No

Text #2
ID                                       : 4
Format                                   : UTF-8
Codec ID                                 : S_TEXT/UTF8
Codec ID/Info                            : UTF-8 Plain Text
Duration                                 : 2 h 37 min
Bit rate                                 : 22 b/s
Count of elements                        : 398
Stream size                              : 25.5 KiB (0%)
Language                                 : Hindi
Default                                  : No
Forced                                   : Yes


https://pichub.site/image/diiTR
https://pichub.site/image/dihxu
https://pichub.site/image/dizDs
https://pichub.site/image/di8mB
https://pichub.site/image/diKY6
https://pichub.site/image/diAsY

........................................................................


Loading...


Trackers:
udp://tracker.coppersurfer.tk:6969/announce

Sanju 2018 Hindi 720p NF WEB-DL x264 ESub [MW]
Files
Sanju 2018 Hindi 720p NF WEB-DL x264 ESub [MW].mkv1.36 GB


Similar Torrents
Type Name Size Added S L
h.264/x264 Sanju 2018 Hindi 720p Pre-DVDRip x264 AAC { TaRa }...
1.37 GB 2018-06-29 20:32:22 25546 5554
Cam/TS Sanju 2018 Hindi V2 720p NEW PRE-X264-AC3 5.1-Zi$t
1.99 GB 2018-07-03 07:46:06 2939 1306
Non-English Sanju 2018 Hindi V2 720p PreDVD Rip x264 AAC [MW]
1.38 GB 2018-07-08 18:05:17 790 83
Cam/TS Sanju 2018 Hindi Movies PDVDRip x264 Clean Audio A...
705.02 MB 2018-06-29 20:22:09 470 152
Non-English Sanju 2018 WebRip Hindi 720p x264 AAC 5.1 ESub - m...
1.39 GB 2018-10-15 07:55:19 417 367
Cam/TS Sanju.2018.Hindi .Pre-DVDRip x264 AC3.With.Sample....
1.24 GB 2018-07-05 10:36:14 392 82
Non-English Sanju 2018 Hindi 1080p NF WEB-DL DD 5.1 x264 ESub ...
2.64 GB 2018-10-15 09:55:40 339 285
Cam/TS Sanju 2018 Hindi NEW PRE-X264-AC3 5.1 Cleaned-Zi$t
1.29 GB 2018-06-30 07:28:30 314 77
HD Sanju 2018 x264 720p Esub Hindi GOPISAHI
792.40 MB 2018-10-15 06:04:01 310 225
Non-English Sanju 2018 Hindi 720p PRE DVDRip x264 AAC [MW]
1.17 GB 2018-06-30 17:30:20 291 11

Comments:
No comments still posted
Loading...
Powered by TT | Page Generated In 0.612879 secs.
| RSS Feed | Feed Info