[Login] or [Signup]

First Cams

Xvid/x264



Non-English

Loading...

Sanju 2018 Hindi 1080p NF WEB-DL DD 5.1 x264 ESub [MW]


Complete Name :Sanju 2018 Hindi 1080p NF WEB-DL DD 5.1 x264 ESub [MW]
Download torrent:    Sanju 2018 Hindi 1080p NF WEB-DL DD 5.1 x264 ESub [MW].torrent
Info Hash:942f610c68fa63e4c60acccec02b7f91eec17e4a
Category:Movies  > Non-English
Torrent language:Hindi  
Seeds | Leech:339 | 285
Complete: 2,910
Health:
Total Size:2.64 GB
Downloaded:14 Times
Added By:      MovieFreak
Date Added:15-10-2018 10:55:am | Last Edit:  16-10-2018 09:27:pm

 

Main Technical Comments




General
Format                                   : Matroska
Format version                           : Version 4 / Version 2
File size                                : 2.64 GiB
Duration                                 : 2 h 38 min
Overall bit rate                         : 2 379 kb/s

Video
ID                                       : 1
Format                                   : AVC
Format/Info                              : Advanced Video Codec
Format profile                           : [email protected]
Format settings                          : CABAC / 4 Ref Frames
Format settings, CABAC                   : Yes
Format settings, RefFrames               : 4 frames
Codec ID                                 : V_MPEG4/ISO/AVC
Duration                                 : 2 h 38 min
Bit rate                                 : 2 000 kb/s
Width                                    : 1 920 pixels
Height                                   : 804 pixels
Display aspect ratio                     : 2.40:1
Frame rate mode                          : Constant
Frame rate                               : 24.000 FPS
Color space                              : YUV
Chroma subsampling                       : 4:2:0
Bit depth                                : 8 bits
Scan type                                : Progressive
Bits/(Pixel*Frame)                       : 0.054
Stream size                              : 2.21 GiB (84%)
Writing library                          : x264 core 155 r2901 7d0ff22
Default                                  : Yes
Forced                                   : No

Audio
ID                                       : 2
Format                                   : E-AC-3
Format/Info                              : Enhanced Audio Coding 3
Codec ID                                 : A_EAC3
Duration                                 : 2 h 38 min
Bit rate mode                            : Constant
Bit rate                                 : 384 kb/s
Channel(s)                               : 6 channels
Channel positions                        : Front: L C R, Side: L R, LFE
Sampling rate                            : 48.0 kHz
Frame rate                               : 187.500 FPS (256 SPF)
Compression mode                         : Lossy
Stream size                              : 437 MiB (16%)
Service kind                             : Complete Main
Default                                  : Yes
Forced                                   : No

Text #1
ID                                       : 3
Format                                   : UTF-8
Codec ID                                 : S_TEXT/UTF8
Codec ID/Info                            : UTF-8 Plain Text
Duration                                 : 2 h 37 min
Bit rate                                 : 51 b/s
Count of elements                        : 1857
Stream size                              : 59.3 KiB (0%)
Language                                 : English
Default                                  : Yes
Forced                                   : No

Text #2
ID                                       : 4
Format                                   : UTF-8
Codec ID                                 : S_TEXT/UTF8
Codec ID/Info                            : UTF-8 Plain Text
Duration                                 : 2 h 37 min
Bit rate                                 : 22 b/s
Count of elements                        : 398
Stream size                              : 25.5 KiB (0%)
Language                                 : Hindi
Default                                  : No
Forced                                   : Yes


https://pichub.site/image/dhpb9
https://pichub.site/image/dhopd
https://pichub.site/image/dh5cu
https://pichub.site/image/dhlvR
https://pichub.site/image/dh69s
https://pichub.site/image/dhXSB

........................................................................


Loading...


Trackers:
udp://tracker.coppersurfer.tk:6969/announce

Sanju 2018 Hindi 1080p NF WEB-DL DD 5.1 x264 ESub [MW]
Files
Sanju 2018 Hindi 1080p NF WEB-DL DD 5.1 x264 ESub [MW].mkv2.64 GB


Similar Torrents
Type Name Size Added S L
h.264/x264 Sanju 2018 Hindi 720p Pre-DVDRip x264 AAC { TaRa }...
1.37 GB 2018-06-29 20:32:22 25546 5554
Cam/TS Sanju 2018 Hindi V2 720p NEW PRE-X264-AC3 5.1-Zi$t
1.99 GB 2018-07-03 07:46:06 2939 1306
Non-English Sanju 2018 Hindi V2 720p PreDVD Rip x264 AAC [MW]
1.38 GB 2018-07-08 18:05:17 790 83
Cam/TS Sanju 2018 Hindi Movies PDVDRip x264 Clean Audio A...
705.02 MB 2018-06-29 20:22:09 470 152
Non-English Sanju 2018 WebRip Hindi 720p x264 AAC 5.1 ESub - m...
1.39 GB 2018-10-15 07:55:19 417 367
Cam/TS Sanju.2018.Hindi .Pre-DVDRip x264 AC3.With.Sample....
1.24 GB 2018-07-05 10:36:14 392 82
Non-English Sanju 2018 Hindi 720p NF WEB-DL x264 ESub [MW]
1.36 GB 2018-10-15 12:49:13 339 304
Cam/TS Sanju 2018 Hindi NEW PRE-X264-AC3 5.1 Cleaned-Zi$t
1.29 GB 2018-06-30 07:28:30 314 77
HD Sanju 2018 x264 720p Esub Hindi GOPISAHI
792.40 MB 2018-10-15 06:04:01 310 225
Non-English Sanju 2018 Hindi 720p PRE DVDRip x264 AAC [MW]
1.17 GB 2018-06-30 17:30:20 291 11

Comments:
No comments still posted
Loading...
Powered by TT | Page Generated In 0.057064 secs.
| RSS Feed | Feed Info