[Login] or [Signup]


Warning! Use a VPN When Downloading Torrents!
Your IP Address is .   Location is
Your Internet Provider is tracking your torrent activity!  Hide your IP ADDRESS with a VPN!
We strongly recommend using ExpressVPN to anonymize your torrenting. 30 Day Money Back Guarantee!
Try it Now!
First Cams

Xvid/x264



Non-English

Site Friends
      ETTV

      WorldWide Torrents

      Free Tutorials

      Aiosearch


Loading...

Sanju (2018) Hindi 570p HDTV UNTOUCHED Full Bollywood Movie x264 AAC -[SM Team]


Complete Name :Sanju (2018) Hindi 570p HDTV UNTOUCHED Full Bollywood Movie x264 AAC -[SM Team]
Download torrent:    Sanju (2018) Hindi 570p HDTV UNTOUCHED Full Bollywood Movie x264 AAC -[SM Team].torrent
Info Hash:4162768d0d7d07d5465a3c9d50ca7755e76e346a
Category:Movies  > Non-English
Torrent language:Hindi  
Seeds | Leech:87 | 32
Complete: 1,215
Health:
Total Size:891.34 MB
Added By:      AlashAhmed
Date Added:14-10-2018 04:16:pm | Last Edit:  27-01-2019 02:01:am

 

IMDB
Sanju
Sanju Released 29 Jun 2018

Genre Biography, Drama

Director Rajkumar Hirani

Writer Abhiruchi Chand (assistant dialogue writer), Rajkumar Hirani, Abhijat Joshi

Actors Ranbir Kapoor, Paresh Rawal, Manisha Koirala, Vicky Kaushal

Plot Sanju is a biopic of the controversial life of actor Sanjay Dutt: his film career, jail sentence and personal life.

Link http://www.imdb.com/title/tt6452574

Last Updated 22-03-2019 22:29:33
8.0

Votes 38,358

Main Technical Comments
New Latest HD Movies Download Link :- https://skymovieshd.in
***********************************



==MEDIA INFO==


Video
ID : 1
Format : AVC
Format/Info : Advanced Video Codec
Format profile : [email protected]
Format settings : CABAC / 3 Ref Frames
Format settings, CABAC : Yes
Format settings, RefFrames : 3 frames
Codec ID : V_MPEG4/ISO/AVC
Duration : 2 h 33 min
Bit rate : 2 198 kb/s
Width : 1 280 pixels
Height : 720 pixels
Display aspect ratio : 16:9
Frame rate mode : Constant
Frame rate : 25.000 FPS
Color space : YUV
Chroma subsampling : 4:2:0
Bit depth : 8 bits
Scan type : Progressive
Bits/(Pixel*Frame) : 0.095
Stream size : 2.36 GiB (94%)
Title : SkymoviesHD.org
Default : Yes
Forced : No

Audio
ID : 2
Format : AAC LC
Format/Info : Advanced Audio Codec Low Complexity
Codec ID : A_AAC-2
Duration : 2 h 33 min
Bit rate : 129 kb/s
Channel(s) : 2 channels
Channel layout : L R
Sampling rate : 48.0 kHz
Frame rate : 46.875 FPS (1024 SPF)
Compression mode : Lossy
Delay relative to video : -80 ms
Stream size : 142 MiB (6%)
Title : SkymoviesHD.org
Default : Yes
Forced : No








New Latest HD Movies Download Link :- https://skymovieshd.in
***********************************

........................................................................


Loading...


Trackers:
udp://tracker.coppersurfer.tk:6969/announce

Sanju (2018) Hindi 570p HDTV UNTOUCHED Full Bollywood Movie x264 AAC -[SM Team]
Files
Sanju (2018) Hindi 480p HDTV UNTOUCHED x264 700MB (SkyMoviesHD.in).mkv --- 891.34 MB


Similar Torrents
Type Name Size Added S L
Non-English Sanju (2018) Hindi HQ PDVDRip x264 AAC 800MB [MOV...
797.89 MB 2018-06-29 18:35:02 11668 1735
Cam/TS Sanju (2018) Hindi 800MB Pre-DVDRip x264 AAC - Do...
797.80 MB 2018-06-29 18:16:56 4053 487
HD ExtraMovies.trade - Sanju (2018) Full Movie [Hindi...
1.25 GB 2018-10-15 18:19:14 2447 2283
h.264/x264 Sanju (2018) v2 Hind Pre-DVDRip (Cleaned) x264 AAC...
700.04 MB 2018-07-01 14:32:50 849 102
Cam/TS Sanju (2018) Hindi 720p V2 Pre-DVDRip x264 AAC - D...
1.21 GB 2018-07-01 17:37:36 848 189
h.264/x264 Sanju (2018) Hindi 720p HDRip x264 AAC MSubs - Dow...
1.22 GB 2018-10-14 23:12:35 413 228
HD Sanju (2018) Hindi WEB-DL - 1080p - AVC - DD+5.1 (...
6.38 GB 2018-10-14 18:34:31 347 142
HD Sanju.(2018).HDRip.720p.Hindi.x264.ACC.2.0.-.TeamT...
996.37 MB 2018-10-15 05:41:16 273 125
h.264/x264 Sanju (2018) Hindi WEB-DL - 720p - AVC - DD+5.1 (6...
3.75 GB 2018-10-14 16:27:23 238 53
Cam/TS Sanju (2018) PreDvDRip 720p Hindi H.264 AAC (Clean...
1.30 GB 2018-07-01 09:54:02 206 15

Comments:
No comments still posted
Loading...
Powered by TT | Page Generated In 0.279698 secs.
| RSS Feed | Feed Info