[Login] or [Signup]

First Cams

Xvid/x264



Non-English

Loading...

Helicopter Eela 2018 Hindi 720p PRE DVDRip x264 [MW]


Complete Name :Helicopter Eela 2018 Hindi 720p PRE DVDRip x264 [MW]
Download torrent:    Helicopter Eela 2018 Hindi 720p PRE DVDRip x264 [MW].torrent
Info Hash:978ebbf03d52eb06e6ce645af34dcf0455b1d40d
Category:Movies  > Non-English
Torrent language:Hindi  
Seeds | Leech:499 | 320
Complete: 2,244
Health:
Total Size:1.25 GB
Downloaded:11 Times
Added By:      MovieFreak
Date Added:14-10-2018 02:04:pm | Last Edit:  15-10-2018 09:37:pm

 

Main Technical Comments




General
Format                                   : Matroska
Format version                           : Version 4 / Version 2
File size                                : 1.25 GiB
Duration                                 : 2 h 3 min
Overall bit rate                         : 1 445 kb/s

Video
ID                                       : 1
Format                                   : AVC
Format/Info                              : Advanced Video Codec
Format profile                           : [email protected]
Format settings                          : CABAC / 4 Ref Frames
Format settings, CABAC                   : Yes
Format settings, RefFrames               : 4 frames
Codec ID                                 : V_MPEG4/ISO/AVC
Duration                                 : 2 h 2 min
Bit rate                                 : 1 300 kb/s
Width                                    : 1 280 pixels
Height                                   : 512 pixels
Display aspect ratio                     : 2.500
Frame rate mode                          : Constant
Frame rate                               : 25.000 FPS
Color space                              : YUV
Chroma subsampling                       : 4:2:0
Bit depth                                : 8 bits
Scan type                                : Progressive
Bits/(Pixel*Frame)                       : 0.079
Stream size                              : 1.14 GiB (91%)
Writing library                          : x264 core 155 r2901 7d0ff22
Default                                  : Yes
Forced                                   : No

Audio
ID                                       : 2
Format                                   : AAC
Format/Info                              : Advanced Audio Codec
Format profile                           : LC
Codec ID                                 : A_AAC-2
Duration                                 : 2 h 3 min
Bit rate                                 : 132 kb/s
Channel(s)                               : 2 channels
Channel positions                        : Front: L R
Sampling rate                            : 48.0 kHz
Frame rate                               : 46.875 FPS (1024 SPF)
Compression mode                         : Lossy
Stream size                              : 115 MiB (9%)
Language                                 : Hindi
Default                                  : Yes
Forced                                   : No


https://pichub.site/image/dy8mD
https://pichub.site/image/dygzI
https://pichub.site/image/dyKYg
https://pichub.site/image/dym2X
https://pichub.site/image/dyuj8
https://pichub.site/image/dyNwJ

........................................................................


Loading...


Trackers:
udp://tracker.coppersurfer.tk:6969/announce

Helicopter Eela 2018 Hindi 720p PRE DVDRip x264 [MW]
Files
Helicopter Eela 2018 Hindi 720p PRE DVDRip x264 [MW].mkv1.25 GB


Similar Torrents
Type Name Size Added S L
Cam/TS Helicopter Eela (2018) Hindi 720p Pre-DVDRip x264 ...
965.95 MB 2018-10-13 01:10:04 731 565
Non-English Helicopter Eela 2018 PreDvd Hindi 720p x264 AAC - ...
1.02 GB 2018-10-13 07:17:00 296 165
Cam/TS Helicopter Eela (2018) Hindi Pre-DVDRip x264 AAC b...
686.73 MB 2018-10-15 18:23:56 187 132
Cam/TS Helicopter Eela (2018) Hindi [MovieOW]
1.01 GB 2018-10-22 21:02:45 104 42
Cam/TS Helicopter Ela (2018) Hindi HQ pDVDRip x264 AAC 80...
1.07 GB 2018-10-12 21:35:59 47 26

Comments:
No comments still posted
Loading...
Powered by TT | Page Generated In 0.049266 secs.
| RSS Feed | Feed Info