[Login] or [Signup]

First Cams

Xvid/x264



Non-English

Loading...

FryDay 2018 Hindi 720p PRE DVDRip x264 [MW]


Complete Name :FryDay 2018 Hindi 720p PRE DVDRip x264 [MW]
Download torrent:    FryDay 2018 Hindi 720p PRE DVDRip x264 [MW].torrent
Info Hash:354a90bd6182b74a8ed4198e2a936d695afb41ea
Category:Movies  > Non-English
Torrent language:Hindi  
Seeds | Leech:621 | 482
Complete: 3,493
Health:
Total Size:918.85 MB
Downloaded:13 Times
Added By:      MovieFreak
Date Added:14-10-2018 02:01:pm | Last Edit:  15-10-2018 09:37:pm

 

IMDB
FryDay
FryDay Released 12 Oct 2018

Genre Comedy

Director Abhishek Dogra

Writer Rajeev Kaul (story), Manu Rishi Chadha (screenplay), Rajeev Kaul (screenplay), Manu Rishi Chadha (dialogue), Meghvrat Singh Gurjar (additional dialogue)

Actors Govinda, Varun Sharma, Sanjay Mishra, Rajesh Sharma

Plot FryDay is a Hindi movie starring Govinda in a prominent role. The cast also includes Sanjay Mishra, Rajesh Sharma, Varun Sharma and Brijendra Kala. It is a comedy directed by Abhishek Dogra.

Link http://www.imdb.com/title/tt7526836

Last Updated 19-11-2018 15:38:24
6.9

Votes 259

Main Technical Comments




General
Format                                   : Matroska
Format version                           : Version 4 / Version 2
File size                                : 919 MiB
Duration                                 : 1 h 44 min
Overall bit rate                         : 1 232 kb/s

Video
ID                                       : 1
Format                                   : AVC
Format/Info                              : Advanced Video Codec
Format profile                           : [email protected]
Format settings                          : CABAC / 4 Ref Frames
Format settings, CABAC                   : Yes
Format settings, RefFrames               : 4 frames
Codec ID                                 : V_MPEG4/ISO/AVC
Duration                                 : 1 h 44 min
Bit rate                                 : 1 100 kb/s
Width                                    : 1 280 pixels
Height                                   : 544 pixels
Display aspect ratio                     : 2.35:1
Frame rate mode                          : Constant
Frame rate                               : 25.000 FPS
Color space                              : YUV
Chroma subsampling                       : 4:2:0
Bit depth                                : 8 bits
Scan type                                : Progressive
Bits/(Pixel*Frame)                       : 0.063
Stream size                              : 820 MiB (89%)
Writing library                          : x264 core 155 r2901 7d0ff22
Default                                  : Yes
Forced                                   : No

Audio
ID                                       : 2
Format                                   : AAC
Format/Info                              : Advanced Audio Codec
Format profile                           : LC
Codec ID                                 : A_AAC-2
Duration                                 : 1 h 44 min
Bit rate                                 : 130 kb/s
Channel(s)                               : 2 channels
Channel positions                        : Front: L R
Sampling rate                            : 48.0 kHz
Frame rate                               : 46.875 FPS (1024 SPF)
Compression mode                         : Lossy
Stream size                              : 96.6 MiB (11%)
Language                                 : Hindi
Default                                  : Yes
Forced                                   : No


https://pichub.site/image/dyVY4
https://pichub.site/image/dyk2y
https://pichub.site/image/dyweb
https://pichub.site/image/dyCk0
https://pichub.site/image/dyhxV
https://pichub.site/image/dyzDN

........................................................................


Loading...


Trackers:
udp://tracker.coppersurfer.tk:6969/announce

FryDay 2018 Hindi 720p PRE DVDRip x264 [MW]
Files
FryDay 2018 Hindi 720p PRE DVDRip x264 [MW].mkv918.85 MB


Similar Torrents
Type Name Size Added S L
Non-English FryDay 2018 PreDvd Hindi 720p x264 AAC - mkvCinema...
888.20 MB 2018-10-13 08:44:33 595 317

Comments:
No comments still posted
Loading...
Powered by TT | Page Generated In 0.285035 secs.
| RSS Feed | Feed Info