[Login] or [Signup]

First Cams

Xvid/x264



Non-English

Loading...

Fanney Khan 2018 Hindi 1080p WEB-DL DD 5.1 x264 ESub [MW]


Complete Name :Fanney Khan 2018 Hindi 1080p WEB-DL DD 5.1 x264 ESub [MW]
Download torrent:    Fanney Khan 2018 Hindi 1080p WEB-DL DD 5.1 x264 ESub [MW].torrent
Info Hash:f7446cc57a40e57041dc3e297d3bd5c052c275f3
Category:Movies  > Non-English
Torrent language:Hindi  
Seeds | Leech:433 | 370
Complete: 1,778
Health:
Total Size:2.57 GB
Downloaded:12 Times
Added By:      MovieFreak
Date Added:14-10-2018 12:56:pm | Last Edit:  15-10-2018 09:38:pm

 

Main Technical Comments




General
Format                                   : Matroska
Format version                           : Version 4 / Version 2
File size                                : 2.57 GiB
Duration                                 : 2 h 9 min
Overall bit rate                         : 2 849 kb/s

Video
ID                                       : 1
Format                                   : AVC
Format/Info                              : Advanced Video Codec
Format profile                           : [email protected]
Format settings                          : 4 Ref Frames
Format settings, CABAC                   : No
Format settings, RefFrames               : 4 frames
Codec ID                                 : V_MPEG4/ISO/AVC
Duration                                 : 2 h 9 min
Bit rate                                 : 2 500 kb/s
Width                                    : 1 920 pixels
Height                                   : 812 pixels
Display aspect ratio                     : 2.35:1
Frame rate mode                          : Constant
Frame rate                               : 24.000 FPS
Color space                              : YUV
Chroma subsampling                       : 4:2:0
Bit depth                                : 8 bits
Scan type                                : Progressive
Bits/(Pixel*Frame)                       : 0.067
Stream size                              : 2.22 GiB (86%)
Writing library                          : x264 core 155 r2901 7d0ff22
Default                                  : Yes
Forced                                   : No

Audio
ID                                       : 2
Format                                   : E-AC-3
Format/Info                              : Enhanced Audio Coding 3
Codec ID                                 : A_EAC3
Duration                                 : 2 h 9 min
Bit rate mode                            : Constant
Bit rate                                 : 384 kb/s
Channel(s)                               : 6 channels
Channel positions                        : Front: L C R, Side: L R, LFE
Sampling rate                            : 48.0 kHz
Frame rate                               : 187.500 FPS (256 SPF)
Compression mode                         : Lossy
Stream size                              : 355 MiB (13%)
Language                                 : Hindi
Service kind                             : Complete Main
Default                                  : Yes
Forced                                   : No

Text
ID                                       : 3
Format                                   : UTF-8
Codec ID                                 : S_TEXT/UTF8
Codec ID/Info                            : UTF-8 Plain Text
Duration                                 : 2 h 6 min
Bit rate                                 : 49 b/s
Count of elements                        : 2041
Stream size                              : 46.2 KiB (0%)
Language                                 : English
Default                                  : Yes
Forced                                   : No


https://pichub.site/image/dyMp9
https://pichub.site/image/dyYeu
https://pichub.site/image/dyIkR
https://pichub.site/image/dyOvs
https://pichub.site/image/dyRHB
https://pichub.site/image/dyDDY

........................................................................


Loading...


Trackers:
udp://tracker.coppersurfer.tk:6969/announce

Fanney Khan 2018 Hindi 1080p WEB-DL DD 5.1 x264 ESub [MW]
Files
Fanney Khan 2018 Hindi 1080p WEB-DL DD 5.1 x264 ESub [MW].mkv2.57 GB


Similar Torrents
Type Name Size Added S L
h.264/x264 Fanney Khan (2018) Hindi 720p HDRip x264 AAC ESubs...
1,010.19 MB 2018-10-12 00:10:28 1528 721
HD Fanney Khan (2018) Hindi 720p HDRip x264 AAC Full ...
1.08 GB 2018-10-11 22:39:50 722 351
Non-English Fanney Khan 2018 WebRip Hindi 720p x264 AAC 5.1 ES...
1.13 GB 2018-10-12 13:55:16 415 317
Non-English Fanney Khan 2018 Hindi 720p PRE DVDRip x264 [MW]
1.15 GB 2018-08-04 18:41:20 384 86
h.264/x264 Fanney Khan 2018 Hindi Movies PDVDRip x264 Clean A...
705.59 MB 2018-08-04 04:50:07 244 93
HD Fanney Khan 2018 x264 720p Esub Hindi GOPISAHI
644.03 MB 2018-10-12 11:22:42 239 151
Cam/TS Fanney Khan 2018 Hindi PRE-H264-AC3 5.1-Zi$t
1.23 GB 2018-08-04 15:41:32 232 111
HD Fanney Khan (2018) 720p Hindi HDRip x264 AAC ESub ...
1.35 GB 2018-10-15 12:49:30 148 61
Cam/TS Fanney Khan (2018) Hindi Pre-DVDRip x264 AAC by Fu...
701.71 MB 2018-08-03 21:11:27 124 49
h.264/x264 Fanney Khan (2018) Hindi 720p WEB-DL x264 AAC-Sun ...
1.47 GB 2018-10-12 14:14:39 108 45

Comments:
No comments still posted
Loading...
Powered by TT | Page Generated In 0.060593 secs.
| RSS Feed | Feed Info