[Login] or [Signup]

First Cams

Xvid/x264



Non-English

Loading...

Soorma 2018 Hindi 1080p NF WEB-DL DD 5.1 x264 ESub [MW]


Complete Name :Soorma 2018 Hindi 1080p NF WEB-DL DD 5.1 x264 ESub [MW]
Download torrent:    Soorma 2018 Hindi 1080p NF WEB-DL DD 5.1 x264 ESub [MW].torrent
Info Hash:c43a11de23bdb2e3230372c6555ba07540289af2
Category:Movies  > Non-English
Torrent language:Hindi  
Seeds | Leech:469 | 386
Complete: 2,118
Health:
Total Size:2.16 GB
Downloaded:11 Times
Added By:      MovieFreak
Date Added:14-10-2018 12:53:pm | Last Edit:  15-10-2018 08:28:pm

 

Main Technical Comments




General
Format                                   : Matroska
Format version                           : Version 4 / Version 2
File size                                : 2.16 GiB
Duration                                 : 2 h 10 min
Overall bit rate                         : 2 368 kb/s

Video
ID                                       : 1
Format                                   : AVC
Format/Info                              : Advanced Video Codec
Format profile                           : [email protected]
Format settings                          : CABAC / 4 Ref Frames
Format settings, CABAC                   : Yes
Format settings, RefFrames               : 4 frames
Codec ID                                 : V_MPEG4/ISO/AVC
Duration                                 : 2 h 10 min
Bit rate                                 : 2 000 kb/s
Width                                    : 1 920 pixels
Height                                   : 816 pixels
Display aspect ratio                     : 2.35:1
Frame rate mode                          : Constant
Frame rate                               : 24.000 FPS
Color space                              : YUV
Chroma subsampling                       : 4:2:0
Bit depth                                : 8 bits
Scan type                                : Progressive
Bits/(Pixel*Frame)                       : 0.053
Stream size                              : 1.81 GiB (84%)
Writing library                          : x264 core 155 r2901 7d0ff22
Default                                  : Yes
Forced                                   : No

Audio
ID                                       : 2
Format                                   : E-AC-3
Format/Info                              : Enhanced Audio Coding 3
Codec ID                                 : A_EAC3
Duration                                 : 2 h 10 min
Bit rate mode                            : Constant
Bit rate                                 : 384 kb/s
Channel(s)                               : 6 channels
Channel positions                        : Front: L C R, Side: L R, LFE
Sampling rate                            : 48.0 kHz
Frame rate                               : 187.500 FPS (256 SPF)
Compression mode                         : Lossy
Stream size                              : 359 MiB (16%)
Language                                 : Hindi
Service kind                             : Complete Main
Default                                  : Yes
Forced                                   : No

Text
ID                                       : 3
Format                                   : UTF-8
Codec ID                                 : S_TEXT/UTF8
Codec ID/Info                            : UTF-8 Plain Text
Duration                                 : 2 h 10 min
Bit rate                                 : 63 b/s
Count of elements                        : 1805
Stream size                              : 60.2 KiB (0%)
Language                                 : English
Default                                  : Yes
Forced                                   : No


https://pichub.site/image/dwFc5
https://pichub.site/image/dwQvh
https://pichub.site/image/dwW9j
https://pichub.site/image/dweSr
https://pichub.site/image/dwjgk
https://pichub.site/image/dwqXQ

........................................................................


Loading...


Trackers:
udp://tracker.coppersurfer.tk:6969/announce

Soorma 2018 Hindi 1080p NF WEB-DL DD 5.1 x264 ESub [MW]
Files
Soorma 2018 Hindi 1080p NF WEB-DL DD 5.1 x264 ESub [MW].mkv2.16 GB


Similar Torrents
Type Name Size Added S L
Non-English Soorma 2018 Hindi 720p PreDVD Rip x264 [MW]
1.07 GB 2018-07-14 17:24:28 3511 1331
Non-English Soorma 2018 WebRip Hindi 720p x264 AAC 5.1 ESub - ...
1.14 GB 2018-10-13 13:13:29 313 240
Non-English Soorma 2018.Hindi.1080p.NF.WEB-DL.x264.AAC.5.1.-.H...
2.57 GB 2018-10-13 13:34:49 202 159
HD Soorma 2018 x264 720p Esub Hindi GOPISAHI
667.07 MB 2018-10-13 08:57:05 93 44

Comments:
No comments still posted
Loading...
Powered by TT | Page Generated In 0.048838 secs.
| RSS Feed | Feed Info