[Login] or [Signup]

First Cams

Xvid/x264



Non-English

Loading...

Pataakha 2018 Hindi 720p PRE DVDRip x264 [MW]


Complete Name :Pataakha 2018 Hindi 720p PRE DVDRip x264 [MW]
Download torrent:    Pataakha 2018 Hindi 720p PRE DVDRip x264 [MW].torrent
Info Hash:1b1092527d3166de67c401990e93b299575ffb13
Category:Movies  > Non-English
Torrent language:Hindi  
Seeds | Leech:431 | 331
Complete: 2,225
Health:
Total Size:1.29 GB
Downloaded:11 Times
Added By:      MovieFreak
Date Added:14-10-2018 12:22:pm | Last Edit:  15-10-2018 08:29:pm

 

IMDB
Pataakha
Pataakha Released 28 Sep 2018

Genre Action, Comedy, Drama

Director Vishal Bhardwaj

Writer Vishal Bhardwaj (written for the screen by), Charan Singh Pathik (based on 'Do Behnein' by)

Actors Sanya Malhotra, Radhika Madan, Sunil Grover, Vijay Raaz

Plot Based on Charan Singh Pathik's short story Do Behnein, Pataakha narrates the story of two feuding sisters who realize the true nature of their relationship only after marriage separates them.

Link http://www.imdb.com/title/tt8396128

Last Updated 16-11-2018 13:56:01
7.5

Votes 577

Main Technical Comments




General
Format                                   : Matroska
Format version                           : Version 4 / Version 2
File size                                : 1.29 GiB
Duration                                 : 2 h 7 min
Overall bit rate                         : 1 444 kb/s

Video
ID                                       : 1
Format                                   : AVC
Format/Info                              : Advanced Video Codec
Format profile                           : [email protected]
Format settings                          : CABAC / 4 Ref Frames
Format settings, CABAC                   : Yes
Format settings, RefFrames               : 4 frames
Codec ID                                 : V_MPEG4/ISO/AVC
Duration                                 : 2 h 7 min
Bit rate                                 : 1 300 kb/s
Width                                    : 1 280 pixels
Height                                   : 544 pixels
Display aspect ratio                     : 2.35:1
Frame rate mode                          : Constant
Frame rate                               : 25.000 FPS
Color space                              : YUV
Chroma subsampling                       : 4:2:0
Bit depth                                : 8 bits
Scan type                                : Progressive
Bits/(Pixel*Frame)                       : 0.075
Stream size                              : 1.17 GiB (91%)
Writing library                          : x264 core 155 r2901 7d0ff22
Default                                  : Yes
Forced                                   : No

Audio
ID                                       : 2
Format                                   : AAC
Format/Info                              : Advanced Audio Codec
Format profile                           : LC
Codec ID                                 : A_AAC-2
Duration                                 : 2 h 7 min
Bit rate                                 : 129 kb/s
Channel(s)                               : 2 channels
Channel positions                        : Front: L R
Sampling rate                            : 48.0 kHz
Frame rate                               : 46.875 FPS (1024 SPF)
Compression mode                         : Lossy
Delay relative to video                  : -21 ms
Stream size                              : 118 MiB (9%)
Language                                 : Hindi
Default                                  : Yes
Forced                                   : No


https://pichub.site/image/dwlUT
https://pichub.site/image/dwXSD
https://pichub.site/image/dwnKZ
https://pichub.site/image/dwsXg
https://pichub.site/image/dwZMI
https://pichub.site/image/dw1iX

........................................................................


Loading...


Trackers:
udp://tracker.coppersurfer.tk:6969/announce

Pataakha 2018 Hindi 720p PRE DVDRip x264 [MW]
Files
Pataakha 2018 Hindi 720p PRE DVDRip x264 [MW].mkv1.29 GB


Similar Torrents
Type Name Size Added S L
Non-English Pataakha 2018 PreDvd Hindi 720p x264 AAC - mkvCine...
1.06 GB 2018-10-14 03:58:28 424 314
Cam/TS Pataakha (2018) Hindi Pr-DVDRip x264 AAC by Full4m...
620.90 MB 2018-10-15 13:20:58 81 69
Cam/TS Pataakha (2018) Hindi Pre DVDRip -X264-1.2GB -[SM ...
1.27 GB 2018-10-12 19:01:22 54 33

Comments:
No comments still posted
Loading...
Powered by TT | Page Generated In 0.247463 secs.
| RSS Feed | Feed Info