[Login] or [Signup]


Warning! Use a VPN When Downloading Torrents!
Your IP Address is .   Location is
Your Internet Provider is tracking your torrent activity!  Hide your IP ADDRESS with a VPN!
We strongly recommend using ExpressVPN to anonymize your torrenting. 30 Day Money Back Guarantee!
Try it Now!
First Cams

Xvid/x264



Non-English

Site Friends
      ETTV

      WorldWide Torrents

      Free Tutorials

      Aiosearch


Loading...

Special 26 2013 Hindi 1080p BluRay x264 DTS [MW]


Complete Name :Special 26 2013 Hindi 1080p BluRay x264 DTS [MW]
Download torrent:    Special 26 2013 Hindi 1080p BluRay x264 DTS [MW].torrent
Info Hash:8ae02d0baf06929f4071bcf54acafbe74153e1a4
Category:Movies  > Non-English
Torrent language:Hindi  
Seeds | Leech:125 | 153
Complete: 511
Health:
Total Size:3.77 GB
Added By:      MovieFreak
Date Added:14-10-2018 12:14:pm | Last Edit:  27-01-2019 02:01:am

 

Main Technical Comments




General
Format                                   : Matroska
Format version                           : Version 4 / Version 2
File size                                : 3.77 GiB
Duration                                 : 2 h 23 min
Overall bit rate                         : 3 761 kb/s

Video
ID                                       : 1
Format                                   : AVC
Format/Info                              : Advanced Video Codec
Format profile                           : [email protected]
Format settings                          : CABAC / 4 Ref Frames
Format settings, CABAC                   : Yes
Format settings, RefFrames               : 4 frames
Codec ID                                 : V_MPEG4/ISO/AVC
Duration                                 : 2 h 23 min
Bit rate                                 : 3 000 kb/s
Width                                    : 1 920 pixels
Height                                   : 816 pixels
Display aspect ratio                     : 2.35:1
Frame rate mode                          : Constant
Frame rate                               : 24.000 FPS
Color space                              : YUV
Chroma subsampling                       : 4:2:0
Bit depth                                : 8 bits
Scan type                                : Progressive
Bits/(Pixel*Frame)                       : 0.080
Stream size                              : 3.01 GiB (80%)
Writing library                          : x264 core 155 r2901 7d0ff22
Default                                  : Yes
Forced                                   : No

Audio
ID                                       : 2
Format                                   : DTS
Format/Info                              : Digital Theater Systems
Codec ID                                 : A_DTS
Duration                                 : 2 h 23 min
Bit rate mode                            : Constant
Bit rate                                 : 756 kb/s
Channel(s)                               : 6 channels
Channel positions                        : Front: L C R, Side: L R, LFE
Sampling rate                            : 48.0 kHz
Frame rate                               : 93.750 FPS (512 SPF)
Bit depth                                : 16 bits
Compression mode                         : Lossy
Stream size                              : 776 MiB (20%)
Language                                 : Hindi
Default                                  : Yes
Forced                                   : No

Text #1
ID                                       : 3
Format                                   : UTF-8
Codec ID                                 : S_TEXT/UTF8
Codec ID/Info                            : UTF-8 Plain Text
Duration                                 : 2 h 23 min
Bit rate                                 : 41 b/s
Count of elements                        : 1592
Stream size                              : 43.6 KiB (0%)
Language                                 : English
Default                                  : Yes
Forced                                   : No

Text #2
ID                                       : 4
Format                                   : PGS
Muxing mode                              : zlib
Codec ID                                 : S_HDMV/PGS
Codec ID/Info                            : Picture based subtitle format used on BDs/HD-DVDs
Duration                                 : 2 h 23 min
Bit rate                                 : 3 725 b/s
Count of elements                        : 3184
Stream size                              : 3.82 MiB (0%)
Language                                 : English
Default                                  : No
Forced                                   : No


https://pichub.site/image/dwUR6
https://pichub.site/image/dwxX4
https://pichub.site/image/dwLJp
https://pichub.site/image/dwriy
https://pichub.site/image/dwoob
https://pichub.site/image/dwpb0

........................................................................


Loading...


Trackers:
udp://tracker.coppersurfer.tk:6969/announce

Special 26 2013 Hindi 1080p BluRay x264 DTS [MW]
Files
Special 26 2013 Hindi 1080p BluRay x264 DTS [MW].mkv --- 3.77 GB


Similar Torrents
Type Name Size Added S L
HD Video HD MKMP-267 KMP works more carefully selected Spe...
14.07 GB 2019-03-21 21:46:06 6566 18915
HD Video HD MIDE-628 acute line 937 convulsions climax and...
4.21 GB 2019-02-27 13:53:14 6298 6069
Video 91 Chief Minister Board better body recognized te...
1.77 GB 2019-03-22 12:02:03 5763 6017
HD Video 5.13 GB 2019-02-05 17:53:01 5001 3973
HD Video HD ABP-831 customs Tower erogenous Full Course 3 ...
5.99 GB 2019-02-11 02:42:28 4522 11053
Video Private constant air superiority my sister cum ou...
479.33 MB 2019-03-20 16:06:40 3863 5140
HD Video HD SSNI-440 acute skills 118 times Convulsions 43...
5.25 GB 2019-03-16 12:24:43 3406 12387
Movie Tokyo-Hot n1361 Tokyo hot passion explode Cosplay ...
2.28 GB 2019-01-29 22:23:02 3077 1430
HD Video HD TRE-094 customs Tower BEST erogenous full cours...
13.95 GB 2019-01-30 23:26:21 3007 2825
HD Video HD IPX-287 1 Limited Edition special attendance R...
3.11 GB 2019-03-10 09:52:03 2941 5595

Comments:
No comments still posted
Loading...
Powered by TT | Page Generated In 0.099506 secs.
| RSS Feed | Feed Info