[Login] or [Signup]

First Cams

Xvid/x264



Non-English

Loading...

Moomal Rano (2017) 720p Hindi WEB HD AAC Full Bollywood Movie 700MB [SM Team]


Complete Name :Moomal Rano (2017) 720p Hindi WEB HD AAC Full Bollywood Movie 700MB [SM Team]
Download torrent:    Moomal Rano (2017) 720p Hindi WEB HD AAC Full Bollywood Movie 700MB [SM Team].torrent
Info Hash:630d07c78f9bba58c9fec5b87de0c9a159b8b3ba
Category:Movies  > Non-English
Torrent language:Hindi  
Seeds | Leech:318 | 170
Complete: 1,317
Health:
Total Size:724.22 MB
Downloaded:13 Times
Added By:      AlashAhmed
Date Added:13-10-2018 04:56:pm | Last Edit:  15-10-2018 01:10:pm

 

IMDB
Moomal Rano
Moomal Rano Released N/A

Genre Drama, Music, Romance

Director Satti Siraj Ul Haque

Writer N/A

Actors N/A

Plot N/A

Link https://www.imdb.com/title/tt7687134/

Last Updated 16-11-2018 14:43:22
6.9

Votes 7

Main Technical Comments
New Latest HD Movies Download Link :- https://skymovieshd.in
***********************************



==Media Info==

Video
ID                          : 1
Format                      : AVC
Format/Info                 : Advanced Video Codec
Format profile              : [email protected]
Format settings, CABAC      : Yes
Format settings, RefFrames  : 4 frames
Codec ID                    : V_MPEG4/ISO/AVC
Duration                    : 1 h 17 min
Bit rate                    : 2 500 kb/s
Width                       : 1 280 pixels
Height                      : 720 pixels
Display aspect ratio        : 16:9
Frame rate mode             : Constant
Frame rate                  : 24.000 FPS
Color space                 : YUV
Chroma subsampling          : 4:2:0
Bit depth                   : 8 bits
Scan type                   : Progressive
Bits/(Pixel*Frame)          : 0.113
Stream size                 : 1.35 GiB (97%)
Writing library             : x264 core 152 r2854 e9a5903
Audio
ID                          : 2
Format                      : AAC
Format/Info                 : Advanced Audio Codec
Format profile              : LC
Codec ID                    : A_AAC
Duration                    : 1 h 18 min
Bit rate                    : 64.5 kb/s
Channel(s)                  : 2 channels
Channel positions           : Front: L R
Sampling rate               : 48.0 kHz
Frame rate                  : 46.875 FPS (1024 SPF)
Compression mode            : Lossy
Stream size                 : 36.1 MiB (3%)
Default                     : Yes
Forced                      : No










New Latest HD Movies Download Link :- https://skymovieshd.in
***********************************

........................................................................


Loading...


Trackers:
udp://tracker.coppersurfer.tk:6969/announce

Moomal Rano (2017) 720p Hindi WEB HD AAC Full Bollywood Movie 700MB [SM Team]
Files
Moomal Rano (2018) 720p Hindi WEB HD AAC Full Bollywood Movie 800MB (SkyMoviesHD.in).mkv724.22 MB


Comments:
No comments still posted
Loading...
Powered by TT | Page Generated In 0.642647 secs.
| RSS Feed | Feed Info