[Login] or [Signup]

First Cams

Xvid/x264



Non-English

Loading...

Soorma 2018.Hindi.1080p.NF.WEB-DL.x264.AAC.5.1.-.Hon3yHD


Complete Name :Soorma 2018.Hindi.1080p.NF.WEB-DL.x264.AAC.5.1.-.Hon3yHD
Download torrent:    Soorma 2018.Hindi.1080p.NF.WEB-DL.x264.AAC.5.1.-.Hon3yHD.torrent
Info Hash:f78ca4ded299b65276993447304e6f87154582cc
Category:Movies  > Non-English
Torrent language:Hindi  
Seeds | Leech:202 | 159
Complete: 2,106
Health:
Total Size:2.57 GB
Downloaded:10 Times
Added By:      Hon3y
Date Added:13-10-2018 02:34:pm | Last Edit:  15-10-2018 10:04:am

 

IMDB
Soorma
Soorma Released 13 Jul 2018

Genre Biography, Sport

Director Shaad Ali

Writer Shaad Ali, Siva Ananth, Adhir Bhat (additional dialogue), Suyash Trivedi

Actors Diljit Dosanjh, Tapsee Pannu, Angad Bedi, Vijay Raaz

Plot Soorma is the story of the triumph of the human spirit, about a player, who made headlines for his miraculous comeback after facing a near death experience through sheer determination, hard work and unrelenting passion for the sport.

Link http://www.imdb.com/title/tt7690638

Last Updated 19-11-2018 15:20:03
7.8

Votes 1,463

Main Technical Comments






Format                      : Matroska
Format version              : Version 4 / Version 2
File size                   : 2.55 GiB
Duration                    : 2 h 10 min
Overall bit rate            : 2 790 kb/s
Movie name                  : Soorma 2018.Hindi.1080p.NF.WEB-DL.x264.AAC.5.1.-.Hon3yHD

Video
ID                          : 1
Format                      : AVC
Format/Info                 : Advanced Video Codec
Format profile              : [email protected]
Format settings             : CABAC / 8 Ref Frames
Format settings, CABAC      : Yes
Format settings, ReFrames   : 8 frames
Codec ID                    : V_MPEG4/ISO/AVC
Duration                    : 2 h 10 min
Bit rate                    : 2 500 kb/s
Width                       : 1 920 pixels
Height                      : 816 pixels
Display aspect ratio        : 2.35:1
Frame rate mode             : Constant
Frame rate                  : 24.000 FPS
Color space                 : YUV
Chroma subsampling          : 4:2:0
Bit depth                   : 8 bits
Scan type                   : Progressive

Audio
ID                          : 2
Format                      : AAC
Format/Info                 : Advanced Audio Codec
Format profile              : LC
Codec ID                    : A_AAC-2
Duration                    : 2 h 10 min
Bit rate                    : 314 kb/s
Channel(s)                  : 6 channels
Channel positions           : Front: L C R, Side: L R, LFE
Sampling rate               : 48.0 kHz
Frame rate                  : 46.875 FPS (1024 SPF)
Compression mode            : Lossy
Delay relative to video     : 9 ms
Stream size                 : 294 MiB (11%)
Title                       : Hon3yHD.org
Language                    : Hindi


Text
ID                          : 3
Format                      : UTF-8
Codec ID                    : S_TEXT/UTF8
Codec ID/Info               : UTF-8 Plain Text
Duration                    : 2 h 10 min
Bit rate                    : 63 b/s
Count of elements           : 1805
Stream size                 : 60.2 KiB (0%)
Title                       : Hon3yHD.org
Language                    : English


For more Exclusive & Quality Stuff Visit :: Hon3yHD


........................................................................


Loading...


Trackers:
udp://tracker.coppersurfer.tk:6969/announce

Soorma 2018.Hindi.1080p.NF.WEB-DL.x264.AAC.5.1.-.Hon3yHD
Files
Hon3yHD.net.txt82.00 B
SaMple Soorma 2018.Hindi.1080p.NF.WEB-DL.x264.AAC.5.1.-.Hon3yHD.mkv21.16 MB
Soorma 2018.Hindi.1080p.NF.WEB-DL.x264.AAC.5.1.-.Hon3yHD.mkv2.55 GB
Torrent Seed By www.cyber-planet.in.txt94.00 B


Similar Torrents
Type Name Size Added S L
Non-English Soorma 2018 Hindi 720p PreDVD Rip x264 [MW]
1.07 GB 2018-07-14 17:24:28 3511 1331
Non-English Soorma 2018 Hindi 1080p NF WEB-DL DD 5.1 x264 ESub...
2.16 GB 2018-10-14 11:53:18 469 386
Non-English Soorma 2018 WebRip Hindi 720p x264 AAC 5.1 ESub - ...
1.14 GB 2018-10-13 13:13:29 313 240
HD Soorma 2018 x264 720p Esub Hindi GOPISAHI
667.07 MB 2018-10-13 08:57:05 93 44

Comments:
No comments still posted
Loading...
Powered by TT | Page Generated In 0.593417 secs.
| RSS Feed | Feed Info