[Login] or [Signup]


Warning! Use a VPN When Downloading Torrents!
Your IP Address is .   Location is
Your Internet Provider is tracking your torrent activity!  Hide your IP ADDRESS with a VPN!
We strongly recommend using Trust.Zone VPN to anonymize your torrenting. It's FREE!
Get VPN Now for FREE!
First Cams

Xvid/x264



Non-English

Loading...

Vikings S05E04 The Plan 1080p 5.1 - 2.0 x264 Phun Psyz


Complete Name :Vikings S05E04 The Plan 1080p 5.1 - 2.0 x264 Phun Psyz
Download torrent:    Vikings S05E04 The Plan 1080p 5.1 - 2.0 x264 Phun Psyz.torrent
Info Hash:3e007c62d9b888379d29eb6a6b85830b3cc674a1
Category:TV  > HD
Torrent language:English  
Seeds | Leech:42 | 31
Complete: 515
Health:
Total Size:777.99 MB
Downloaded:17 Times
Added By:      phunpsyz
Date Added:12-10-2018 04:20:pm | Last Edit:  27-01-2019 02:01:am

 

Main Technical Comments
www.imdb.com/title/tt5956218/?ref_=ttep_ep4

Guided by Bishop Heahmund's visions, the Saxons devise a battle plan. Ivar the Boneless strategizes on his own as the Vikings undergo increasing pressure. Bjorn Ironside finds himself in a new territory and must convince the local commander he is a trader and not a raider.

Source: Deflate







Format                      : MPEG-4
Format profile              : Base Media / Version 2
Codec ID                    : mp42 (isom/iso2/avc1/mp41)
File size                   : 778 MiB
Duration                    : 44 min 1 s
Overall bit rate mode       : Variable
Overall bit rate            : 2 471 kb/s

Video
ID                          : 1
Format                      : AVC
Format/Info                 : Advanced Video Codec
Format profile              : [email protected]
Format settings             : CABAC / 1 Ref Frames
Format settings, CABAC      : Yes
Format settings, ReFrames   : 1 frame
Codec ID                    : avc1
Codec ID/Info               : Advanced Video Coding
Duration                    : 44 min 1 s
Bit rate                    : 1 984 kb/s
Width                       : 1 920 pixels
Height                      : 1 080 pixels
Display aspect ratio        : 16:9
Frame rate mode             : Variable
Frame rate                  : 23.976 (24000/1001) FPS
Minimum frame rate          : 23.974 FPS
Maximum frame rate          : 23.981 FPS
Color space                 : YUV
Chroma subsampling          : 4:2:0
Bit depth                   : 8 bits
Scan type                   : Progressive
Bits/(Pixel*Frame)          : 0.040
Stream size                 : 625 MiB (80%)
Writing library             : x264 core 155 r2901 7d0ff22

Audio #1
ID                          : 2
Format                      : AC-3
Format/Info                 : Audio Coding 3
Commercial name             : Dolby Digital
Codec ID                    : ac-3
Duration                    : 44 min 1 s
Bit rate mode               : Constant
Bit rate                    : 320 kb/s
Channel(s)                  : 6 channels
Channel layout              : L R C LFE Ls Rs
Sampling rate               : 48.0 kHz
Frame rate                  : 31.250 FPS (1536 SPF)
Bit depth                   : 16 bits
Compression mode            : Lossy
Stream size                 : 101 MiB (13%)
Title                       : Surround / Surround
Language                    : English

Audio #2
ID                          : 3
Format                      : AAC LC
Format/Info                 : Advanced Audio Codec Low Complexity
Codec ID                    : mp4a-40-2
Duration                    : 44 min 1 s
Bit rate mode               : Variable
Bit rate                    : 160 kb/s
Channel(s)                  : 2 channels
Channel layout              : L R
Sampling rate               : 48.0 kHz
Frame rate                  : 46.875 FPS (1024 SPF)
Compression mode            : Lossy
Stream size                 : 50.4 MiB (6%)
Title                       : Stereo / Stereo
Language                    : English

Text
Language                    : English
Default                     : Yes
Forced                      : No
........................................................................


Loading...


Trackers:
udp://tracker.opentrackr.org:1337/announce

Vikings S05E04 The Plan 1080p 5.1 - 2.0 x264 Phun Psyz
Files
Vikings S05E04 The Plan 1080p 5.1 - 2.0 x264 Phun Psyz.mp4 --- 777.99 MB


Similar Torrents
Type Name Size Added S L
x264 Vikings.S05E19.HDTV.x264-LucidTV[ettv]
325.85 MB 2019-01-24 05:18:40 12061 2695
x264 Vikings.S05E20.HDTV.x264-SVA[ettv]
348.21 MB 2019-01-31 05:07:41 6914 1644
HD Vikings.S05E19.720p.HDTV.x264-LucidTV[ettv]
1.08 GB 2019-01-24 05:16:44 4569 1223
HD Vikings.S05E11.720p.WEB.h264-CONVOY[ettv]
808.52 MB 2018-11-29 04:45:16 3796 633
x264 Vikings.S05E13.HDTV.x264-SVA[ettv]
242.61 MB 2018-12-13 05:15:30 3767 791
x264 Vikings.S05E12.WEBRip.x264-PBS[ettv]
252.75 MB 2018-12-06 11:17:02 3673 887
x264 Vikings.S05E18.HDTV.x264-SVA[ettv]
270.06 MB 2019-01-17 05:06:02 3387 414
x264 Vikings.S05E14.HDTV.x264-KILLERS[ettv]
242.99 MB 2018-12-20 05:07:29 2856 460
x264 Vikings.S05E15.HDTV.x264-BATV[ettv]
331.35 MB 2018-12-27 05:06:18 2755 462
HD Vikings.5x19.What.Happens.In.The.Cave.ITA.ENG.1080...
2.44 GB 2019-01-24 21:31:38 2097 376

Comments:
No comments still posted
Loading...
Powered by TT | Page Generated In 0.077573 secs.
| RSS Feed | Feed Info