[Login] or [Signup]

First Cams

Xvid/x264



Non-English

Loading...

Fanney Khan 2018 x264 720p Esub Hindi GOPISAHI


Complete Name :Fanney Khan 2018 x264 720p Esub Hindi GOPISAHI
Download torrent:    Fanney Khan 2018 x264 720p Esub Hindi GOPISAHI.torrent
Info Hash:dd4d4f8f727ef0db7315003a2c29bf6825c3d3db
Category:Movies  > HD
Torrent language:Hindi  
Seeds | Leech:239 | 151
Complete: 2,047
Health:
Total Size:644.03 MB
Downloaded:11 Times
Added By:      GOPISAHI
Date Added:12-10-2018 12:22:pm | Last Edit:  13-10-2018 10:03:pm

 

Main Technical Comments
https://www.gopisahi.pw/

Format                         : Matroska
Format version                 : Version 4 / Version 2
File size                      : 644 MiB
Duration                       : 2 h 9 min
Overall bit rate               : 697 kb/s
Movie name                     : Fanney Khan 2018 GOPISAHI

Video
Format                         : AVC
Format/Info                    : Advanced Video Codec
Codec ID                       : V_MPEG4/ISO/AVC
Duration                       : 2 h 9 min
Bit rate                       : 599 kb/s
Width                          : 1 280 pixels
Height                         : 544 pixels
Display aspect ratio           : 2.35:1
Frame rate mode                : Constant
Frame rate                     : 24.000 FPS
Color space                    : YUV
Chroma subsampling             : 4:2:0
Bit depth                      : 8 bits
Scan type                      : Progressive
Bits/(Pixel*Frame)             : 0.036
Stream size                    : 554 MiB (86%)
Title                          : GOPISAHI
Writing library                : x264 core 155 r2901 7d0ff22

Audio
Format                         : AAC
Duration                       : 2 h 9 min
Bit rate                       : 96.0 kb/s
Channel(s)                     : 2 channels
Channel positions              : Front: L R
Sampling rate                  : 48.0 kHz
Frame rate                     : 46.875 FPS (1024 SPF)
Compression mode               : Lossy
Delay relative to video        : -21 ms
Stream size                    : 88.4 MiB (14%)
Title                          : GOPISAHI
Language                       : Hindi

Text
Language                       : English


........................................................................


Loading...


Trackers:
udp://tracker.coppersurfer.tk:6969/announce

Fanney Khan 2018 x264 720p Esub Hindi GOPISAHI
Files
Fanney Khan 2018 x264 720p Esub Hindi GOPISAHI.mkv644.03 MB


Similar Torrents
Type Name Size Added S L
h.264/x264 Fanney Khan (2018) Hindi 720p HDRip x264 AAC ESubs...
1,010.19 MB 2018-10-12 00:10:28 1528 721
HD Fanney Khan (2018) Hindi 720p HDRip x264 AAC Full ...
1.08 GB 2018-10-11 22:39:50 722 351
Non-English Fanney Khan 2018 Hindi 1080p WEB-DL DD 5.1 x264 ES...
2.57 GB 2018-10-14 11:56:50 433 370
Non-English Fanney Khan 2018 WebRip Hindi 720p x264 AAC 5.1 ES...
1.13 GB 2018-10-12 13:55:16 415 317
Non-English Fanney Khan 2018 Hindi 720p PRE DVDRip x264 [MW]
1.15 GB 2018-08-04 18:41:20 384 86
h.264/x264 Fanney Khan 2018 Hindi Movies PDVDRip x264 Clean A...
705.59 MB 2018-08-04 04:50:07 244 93
Cam/TS Fanney Khan 2018 Hindi PRE-H264-AC3 5.1-Zi$t
1.23 GB 2018-08-04 15:41:32 232 111
HD Fanney Khan (2018) 720p Hindi HDRip x264 AAC ESub ...
1.35 GB 2018-10-15 12:49:30 148 61
Cam/TS Fanney Khan (2018) Hindi Pre-DVDRip x264 AAC by Fu...
701.71 MB 2018-08-03 21:11:27 124 49
h.264/x264 Fanney Khan (2018) Hindi 720p WEB-DL x264 AAC-Sun ...
1.47 GB 2018-10-12 14:14:39 108 45

Comments:
No comments still posted
Loading...
Powered by TT | Page Generated In 0.043720 secs.
| RSS Feed | Feed Info