[Login] or [Signup]

First Cams

Xvid/x264



Non-English

Loading...

Pitbull. Last Dog (2018)[BRRip 1080p x264 by alE13 AC3][Napisy PL/Eng][Polish]


Complete Name :Pitbull. Last Dog (2018)[BRRip 1080p x264 by alE13 AC3][Napisy PL/Eng][Polish]
Download torrent:    Pitbull. Last Dog (2018)[BRRip 1080p x264 by alE13 AC3][Napisy PL/Eng][Polish].torrent
Info Hash:bbde0c75161af308cdc2cec16d46426134d4d526
Category:Movies  > HD
Torrent language:Polish  
Seeds | Leech:21 | 79
Complete: 149
Health:
Total Size:8.18 GB
Downloaded:10 Times
Added By:      alE13
Date Added:12-10-2018 10:26:am | Last Edit:  13-10-2018 05:57:pm

 

Main Technical Comments


https://www.imdb.com/title/tt7874378/
https://www.filmweb.pl/film/Pitbull.+Ostatni+pies-2018-795063

Plik zawiera sample.

reżyseria: Władysław Pasikowski
scenariusz: Władysław Pasikowski
gatunek: Sensacyjny,Kryminał
produkcja: Polska
premiera: 13-03-2018 (blu-ray 2018-08-23)
muzyka:         Radosław Łuka
zdjęcia:        Maciej Lisiecki
czas:           2h 3min

opis:

A policeman gets killed and the short-staffed police chief sends for a few experienced
officers to support him in his fight with organized crime. Meanwhile, a conflict between
local gangster groups escalates.

Po śmierci Soczka policjanci z warszawskiej komendy rozpoczynają śledztwo. Na wezwanie
komendanta do stolicy przybywają Nielat zwany Quantico, Metyl oraz Despero, którzy mają
za zadanie powstrzymać gangi walczące między sobą o miasto.






obsada:

Marcin Dorocinski, Krzysztof Stroinski, Dorota Rabczewska

dane techniczne:

Pitbull. Ostatni pies (2018)-alE13.mkv
Format                      : Matroska
Format version              : Version 4 / Version 2
File size                   : 8.11 GiB
Duration                    : 2 h 3 min
Overall bit rate mode       : Variable
Overall bit rate            : 9 363 kb/s
Movie name                  : Pitbull. Ostatni pies (2018)-alE13
Encoded date                : UTC 2018-10-12 05:15:27
Writing application         : mkvmerge v8.1.0 ('Psychedelic Postcard') 64bit
Writing library             : libebml v1.3.1 + libmatroska v1.4.2
Cover                       : Yes
Attachments                 : Cover.jpg

Video
ID                          : 1
Format                      : AVC
Format/Info                 : Advanced Video Codec
Format profile              : [email protected]
Format settings             : CABAC / 3 Ref Frames
Format settings, CABAC      : Yes
Format settings, ReFrames   : 3 frames
Codec ID                    : V_MPEG4/ISO/AVC
Duration                    : 2 h 3 min
Bit rate mode               : Variable
Bit rate                    : 8 718 kb/s
Maximum bit rate            : 20.0 Mb/s
Width                       : 1 920 pixels
Height                      : 808 pixels
Display aspect ratio        : 2.40:1
Frame rate mode             : Constant
Frame rate                  : 24.000 FPS
Standard                    : PAL
Color space                 : YUV
Chroma subsampling          : 4:2:0
Bit depth                   : 8 bits
Scan type                   : Progressive
Bits/(Pixel*Frame)          : 0.234
Stream size                 : 7.55 GiB (93%)
Title                       : Pitbull. Ostatni pies (2018)-alE13
Default                     : Yes
Forced                      : No
Color range                 : Limited
Color primaries             : BT.709
Transfer characteristics    : BT.709
Matrix coefficients         : BT.709

Audio
ID                          : 2
Format                      : AC-3
Format/Info                 : Audio Coding 3
Codec ID                    : A_AC3
Duration                    : 2 h 3 min
Bit rate mode               : Constant
Bit rate                    : 640 kb/s
Channel(s)                  : 6 channels
Channel positions           : Front: L C R, Side: L R, LFE
Sampling rate               : 48.0 kHz
Frame rate                  : 31.250 FPS (1536 SPF)
Bit depth                   : 16 bits
Compression mode            : Lossy
Stream size                 : 567 MiB (7%)
Title                       : Pitbull. Ostatni pies (2018)-alE13_DD 5.1 @ 640 kbps
Language                    : Polish
Service kind                : Complete Main
Default                     : No
Forced                      : No

Text #1
ID                          : 3
Format                      : UTF-8
Codec ID                    : S_TEXT/UTF8
Codec ID/Info               : UTF-8 Plain Text
Duration                    : 2 h 3 min
Bit rate                    : 1 b/s
Count of elements           : 55
Stream size                 : 1.76 KiB (0%)
Title                       : Pitbull. Ostatni pies (2018)-alE13_Forced
Language                    : Polish
Default                     : No
Forced                      : No

Text #2
ID                          : 4
Format                      : UTF-8
Codec ID                    : S_TEXT/UTF8
Codec ID/Info               : UTF-8 Plain Text
Duration                    : 2 h 3 min
Bit rate                    : 51 b/s
Count of elements           : 1222
Stream size                 : 46.5 KiB (0%)
Title                       : Pitbull. Ostatni pies (2018)-alE13
Language                    : English
Default                     : No
Forced                      : No

Menu
00:00:00.000                : pl:Chapter 01
00:06:46.500                : pl:Chapter 02
00:14:45.500                : pl:Chapter 03
00:22:57.666                : pl:Chapter 04
00:30:05.458                : pl:Chapter 05
00:39:34.708                : pl:Chapter 06
00:46:39.791                : pl:Chapter 07
00:53:59.583                : pl:Chapter 08
01:03:47.083                : pl:Chapter 09
01:09:17.041                : pl:Chapter 10
01:17:20.291                : pl:Chapter 11
01:24:39.750                : pl:Chapter 12
01:31:37.125                : pl:Chapter 13
01:36:00.166                : pl:Chapter 14
01:43:36.833                : pl:Chapter 15
01:57:12.500                : pl:Chapter 16
........................................................................


Loading...


Trackers:
udp://tracker.coppersurfer.tk:6969/announce

This Torrent also has backup trackers
URLSeedersLeechersCompleted
http://tracker.torrentyorg.pl/announce000
http://tracker.devil-torrents.pl/announce000

Pitbull. Last Dog (2018)[BRRip 1080p x264 by alE13 AC3][Napisy PL/Eng][Polish]
Files
info/info/Nostalgie11.jpg185.84 kB
info/info/Torrent downloaded from demonoid.pw.txt46.00 B
info/info/Torrent Downloaded From devil-torrents.txt61.00 B
info/info/Torrent Downloaded From ex-torrents-org.txt44.00 B
info/info/Torrent downloaded from filetracker.txt48.00 B
info/info/Torrent Downloaded From immortaltorrent.txt44.00 B
info/info/Torrent Downloaded From prostylex.txt44.00 B
info/info/Torrent Downloaded From super-torrent.txt42.00 B
info/Nostalgie.jpg185.84 kB
info/Torrent Downloaded From devil-torrents.txt61.00 B
info/Torrent Downloaded From ex-torrents-org.txt44.00 B
info/Torrent downloaded from filetracker.txt48.00 B
info/Torrent Downloaded From immortaltorrent.txt44.00 B
info/Torrent Downloaded From prostylex.txt44.00 B
info/Torrent Downloaded From super-torrent.txt42.00 B
Pitbull. Ostatni pies (2018)-alE13.mkv8.11 GB
Poster.jpg158.54 kB
Sample.mkv71.30 MB
subtitles/Pitbull. Ostatni pies (2018)-alE13.rar1.51 MB


Similar Torrents
Type Name Size Added S L
h.264/x264 18+ Pitbull Last Dog A.K.A. Ostatni Pies 2018 Movi...
773.63 MB 2018-08-27 12:57:49 227 34
h.264/x264 Pitbull.Last.Dog.2018.BDRip.x264-SPRiNTER[EtMovies...
772.30 MB 2018-08-27 09:36:56 107 78
HD Pitbull.Last.Dog.2018.1080p.BluRay.x264-SPRiNTER[E...
9.90 GB 2018-08-27 05:10:26 105 236
HD 18+ Pitbull Last Dog A.K.A. Ostatni pies 2018 Movi...
955.25 MB 2018-09-17 19:48:44 61 42
Audio Enrique Iglesias feat. Pitbull - Move To Miami {Si...
6.49 MB 2018-05-03 20:13:09 39 17
HD 18+ Pitbull Last Dog A.K.A. Ostatni pies 2018 Movi...
845.55 MB 2018-09-17 19:22:34 35 19
HD 18+.Pitbull.Last.Dog.2018.1080p.BluRay.x264.MFH
2.03 GB 2018-08-29 06:34:31 16 15

Comments:
No comments still posted
Loading...
Powered by TT | Page Generated In 0.051637 secs.
| RSS Feed | Feed Info