[Login] or [Signup]

First Cams

Xvid/x264



Non-English

Loading...



Complete Name :[email protected]
Download torrent:    [email protected]
Info Hash:2484d63184e637971128e6c093b917a0d30d4bfe
Category:Movies  > HD
Torrent language:English  
Seeds | Leech:0 | 0
Complete: 0
Health:
Total Size:983.01 MB
Downloaded:10 Times
Added By:      iMaX100
Date Added:12-10-2018 09:32:am | Last Edit:  13-10-2018 05:58:pm

 

Main Technical Comments
Language: English

Genre: Thriller

Set nine years after an apocalyptic event that killed millions and left the world inhabited by ghosts.



Format                                   : Matroska
Format version                           : Version 4 / Version 2
File size                                : 983 MiB
Duration                                 : 1 h 38 min
Overall bit rate                         : 1 400 kb/s
Movie name                               : www.MOVEY.CC
Encoded date                             : UTC 2018-10-12 06:16:26
Writing application                      : mkvmerge v19.0.0 ('Brave Captain') 64-bit
Writing library                          : libebml v1.3.5 + libmatroska v1.4.8

Video
ID                                       : 1
Format                                   : AVC
Format/Info                              : Advanced Video Codec
Format profile                           : [email protected]
Format settings                          : CABAC / 4 Ref Frames
Format settings, CABAC                   : Yes
Format settings, RefFrames               : 4 frames
Codec ID                                 : V_MPEG4/ISO/AVC
Duration                                 : 1 h 38 min
Bit rate                                 : 1 014 kb/s
Width                                    : 1 280 pixels
Height                                   : 530 pixels
Display aspect ratio                     : 2.40:1
Frame rate mode                          : Constant
Frame rate                               : 23.976 (24000/1001) FPS
Color space                              : YUV
Chroma subsampling                       : 4:2:0
Bit depth                                : 8 bits
Scan type                                : Progressive
Bits/(Pixel*Frame)                       : 0.062
Stream size                              : 712 MiB (72%)
Title                                    : www.MOVEY.CC
Writing library                          : x264 core 155 r2901 7d0ff22
Encoding settings                        : cabac=1 / ref=3 / deblock=1:0:0 / analyse=0x3:0x113 / me=hex / subme=7 / psy=1 / psy_rd=1.00:0.00 / mixed_ref=1 / me_range=16 / chroma_me=1 / trellis=1 / 8x8dct=1 / cqm=0 / deadzone=21,11 / fast_pskip=1 / chroma_qp_offset=-2 / threads=12 / lookahead_threads=2 / sliced_threads=0 / nr=0 / decimate=1 / interlaced=0 / bluray_compat=0 / constrained_intra=0 / bframes=3 / b_pyramid=2 / b_adapt=1 / b_bias=0 / direct=1 / weightb=1 / open_gop=0 / weightp=2 / keyint=240 / keyint_min=23 / scenecut=40 / intra_refresh=0 / rc_lookahead=40 / rc=2pass / mbtree=1 / bitrate=1014 / ratetol=1.0 / qcomp=0.60 / qpmin=0 / qpmax=69 / qpstep=4 / cplxblur=20.0 / qblur=0.5 / ip_ratio=1.40 / aq=1:1.00
Default                                  : Yes
Forced                                   : No

Audio
ID                                       : 2
Format                                   : AC-3
Format/Info                              : Audio Coding 3
Codec ID                                 : A_AC3
Duration                                 : 1 h 38 min
Bit rate mode                            : Constant
Bit rate                                 : 384 kb/s
Channel(s)                               : 6 channels
Channel positions                        : Front: L C R, Side: L R, LFE
Sampling rate                            : 48.0 kHz
Frame rate                               : 31.250 FPS (1536 SPF)
Bit depth                                : 16 bits
Compression mode                         : Lossy
Stream size                              : 270 MiB (27%)
Title                                    : www.MOVEY.CC
Language                                 : English
Service kind                             : Complete Main
Default                                  : Yes
Forced                                   : No[/quote]
........................................................................


Loading...


Trackers:
udp://tracker.leechers-paradise.org:6969/announce

[email protected]
Files
Visit Like & Share www.MOVEY.CC.txt116.00 B
www.MOVEY.CC - [email protected]983.01 MB


Similar Torrents
Type Name Size Added S L
Divx/Xvid I.Still.See.You.2018.HDRip.XViD-ETRG
708.85 MB 2018-10-12 09:39:59 4197 1807
Divx/Xvid I.Still.See.You.2018.HDRip.XviD.AC3-EVO
1.37 GB 2018-10-12 06:52:05 1040 555
HD I.Still.See.You.2018.1080p.WEB-DL.DD5.1.H264-CMRG[...
3.39 GB 2018-10-12 06:45:30 452 194
Anime/Hentai Yet I Still Love My Wife Episode 01 [EngSub] SD.mp...
87.28 MB 2018-05-20 18:32:52 253 10
HD I Still See You (2018) 720p WEB-DL x264 800MB ESub...
810.06 MB 2018-10-12 09:55:37 227 159
h.264/x264 I Still See You (2018) 720p Web-DL x264 AAC ESubs ...
771.02 MB 2018-10-12 14:42:39 131 68
HD I Still See You 2018 1080p WEB-DL DD 5.1 x264 [MW]
1.63 GB 2018-10-13 12:59:11 104 30
HD Video [Family Therapy] - Naomi Woods - I Still Want You ...
1.04 GB 2018-07-29 08:38:36 97 32
Video PervMom 18 10 02 Trinity St Clair I Still Need Sem...
150.41 MB 2018-10-06 10:14:25 87 19
Non-English I Still Hide to Smoke [2016 - France, Algeria] ham...
1.29 GB 2018-10-07 05:20:47 76 24

Comments:
No comments still posted
Loading...
Powered by TT | Page Generated In 0.043363 secs.
| RSS Feed | Feed Info