[Login] or [Signup]

First Cams

Xvid/x264



Non-English

Loading...

18+ I Still See You 2018 Movies HDRip x264 5.1 with Sample ☻rDX☻


Complete Name :18+ I Still See You 2018 Movies HDRip x264 5.1 with Sample ☻rDX☻
Download torrent:    18+ I Still See You 2018 Movies HDRip x264 5.1 with Sample ☻rDX☻.torrent
Info Hash:3117bbf91564b8f2bcce14670e5514a4c1b1ac51
Category:Movies  > HD
Torrent language:English  
Seeds | Leech:29 | 16
Complete: 209
Health:
Total Size:927.85 MB
Downloaded:10 Times
Added By:      teamrdx
Date Added:12-10-2018 09:04:am | Last Edit:  13-10-2018 04:57:pm

 

Main Technical Comments
18+ I Still See You 2018 Movies HDRip x264 5.1 with Sample ☻rDX☻

:clapSCREEN SHOTS & POSTER::clap

https://iphonehosting.eu/2018/10/revenue/index.html
https://iphonehosting.eu/2018/10/revenue/1.html
https://iphonehosting.eu/2018/10/revenue/2.html
https://iphonehosting.eu/2018/10/revenue/3.html
https://iphonehosting.eu/2018/10/revenue/4.html
https://iphonehosting.eu/2018/10/revenue/5.html
https://iphonehosting.eu/2018/10/revenue/6.html
https://iphonehosting.eu/2018/10/revenue/7.html
https://iphonehosting.eu/2018/10/revenue/8.html
https://iphonehosting.eu/2018/10/revenue/9.html
https://iphonehosting.eu/2018/10/revenue/10.html


File size                                : 919 MiB
Duration                                 : 1 h 38 min
Overall bit rate mode                    : Constant
Overall bit rate                         : 1 308 kb/s
Movie name                               : 18+ I Still See You 2018 Movies HDRip x264 5.1 ☻rDX☻

Video
ID                                       : 2
Format                                   : AVC
Format/Info                              : Advanced Video Codec
Format profile                           : [email protected]
Format settings, CABAC                   : Yes
Format settings, ReFrames                : 2 frames
Format settings, GOP                     : M=1, N=12
Codec ID                                 : V_MPEG4/ISO/AVC
Duration                                 : 1 h 38 min
Bit rate mode                            : Constant
Bit rate                                 : 925 kb/s
Width                                    : 720 pixels
Height                                   : 304 pixels
Display aspect ratio                     : 2.35:1
Frame rate mode                          : Constant
Frame rate                               : 23.976 (24000/1001) FPS
Color space                              : YUV
Chroma subsampling                       : 4:2:0
Bit depth                                : 8 bits
Scan type                                : Progressive
Bits/(Pixel*Frame)                       : 0.176
Stream size                              : 631 MiB (69%)
Title                                    : ☻rDX☻
Default                                  : Yes
Forced                                   : No

Audio
ID                                       : 1
Format                                   : AC-3
Format/Info                              : Audio Coding 3
Mode extension                           : CM (complete main)
Format settings, Endianness              : Big
Codec ID                                 : A_AC3
Duration                                 : 1 h 38 min
Bit rate mode                            : Constant
Bit rate                                 : 384 kb/s
Channel(s)                               : 6 channels
Channel positions                        : Front: L C R, Side: L R, LFE
Sampling rate                            : 48.0 kHz
Frame rate                               : 31.250 FPS (1536 spf)
Bit depth                                : 16 bits
Compression mode                         : Lossy
Stream size                              : 270 MiB (29%)
Title                                    : ☻rDX☻
Language                                 : English
Default                                  : Yes
Forced                                   : No

https://www.imdb.com/title/tt2160105/
........................................................................


Loading...


Trackers:
udp://tracker.coppersurfer.tk:6969/announce

18+ I Still See You 2018 Movies HDRip x264 5.1 with Sample ☻rDX☻
Files
18+ I Still See You 2018 Movies HDRip x264 5.1 ☻rDX☻.mkv918.51 MB
Sample ~ 18+ I Still See You 2018 Movies HDRip x264 5.1 ☻rDX☻.mkv9.34 MB


Similar Torrents
Type Name Size Added S L
HD 18+ I Still See You 2018 Movies 720p HDRip x264 AA...
766.54 MB 2018-10-12 14:22:53 53 8
HD 18+ I Still See You 2018 Movies HDRip x264 AAC wit...
705.73 MB 2018-10-12 07:55:20 24 61
HD 18+ I Still See You 2018 Movies 720p HDRip x264 5....
993.22 MB 2018-10-12 14:29:29 21 14

Comments:
No comments still posted
Loading...
Powered by TT | Page Generated In 0.042729 secs.
| RSS Feed | Feed Info