[Login] or [Signup]

First Cams

Xvid/x264



Non-English

Loading...

18+ I Still See You 2018 Movies HDRip x264 AAC with Sample ☻rDX☻


Complete Name :18+ I Still See You 2018 Movies HDRip x264 AAC with Sample ☻rDX☻
Download torrent:    18+ I Still See You 2018 Movies HDRip x264 AAC with Sample ☻rDX☻.torrent
Info Hash:1aecb969e7f33487eb81098b816b8176e12b00e9
Category:Movies  > HD
Torrent language:English  
Seeds | Leech:24 | 61
Complete: 194
Health:
Total Size:705.73 MB
Downloaded:10 Times
Added By:      teamrdx
Date Added:12-10-2018 08:55:am | Last Edit:  13-10-2018 04:58:pm

 

Main Technical Comments
18+ I Still See You 2018 Movies HDRip x264 AAC with Sample ☻rDX☻

:clapSCREEN SHOTS & POSTER::clap

https://iphonehosting.eu/2018/10/revenue/index.html
https://iphonehosting.eu/2018/10/revenue/1.html
https://iphonehosting.eu/2018/10/revenue/2.html
https://iphonehosting.eu/2018/10/revenue/3.html
https://iphonehosting.eu/2018/10/revenue/4.html
https://iphonehosting.eu/2018/10/revenue/5.html
https://iphonehosting.eu/2018/10/revenue/6.html
https://iphonehosting.eu/2018/10/revenue/7.html
https://iphonehosting.eu/2018/10/revenue/8.html
https://iphonehosting.eu/2018/10/revenue/9.html
https://iphonehosting.eu/2018/10/revenue/10.html


File size                                : 694 MiB
Duration                                 : 1 h 38 min
Overall bit rate mode                    : Constant
Overall bit rate                         : 988 kb/s
Movie name                               : 18+ I Still See You 2018 Movies HDRip x264 AAC ☻rDX☻

Video
ID                                       : 2
Format                                   : AVC
Format/Info                              : Advanced Video Codec
Format profile                           : [email protected]
Format settings, CABAC                   : Yes
Format settings, ReFrames                : 2 frames
Format settings, GOP                     : M=1, N=12
Codec ID                                 : V_MPEG4/ISO/AVC
Duration                                 : 1 h 38 min
Bit rate mode                            : Constant
Bit rate                                 : 925 kb/s
Width                                    : 720 pixels
Height                                   : 304 pixels
Display aspect ratio                     : 2.35:1
Frame rate mode                          : Constant
Frame rate                               : 23.976 (24000/1001) FPS
Color space                              : YUV
Chroma subsampling                       : 4:2:0
Bit depth                                : 8 bits
Scan type                                : Progressive
Bits/(Pixel*Frame)                       : 0.176
Stream size                              : 635 MiB (92%)
Title                                    : ☻rDX☻
Default                                  : Yes
Forced                                   : No

Audio
ID                                       : 1
Format                                   : MPEG Audio
Format version                           : Version 1
Format profile                           : Layer 3
Mode                                     : Joint stereo
Mode extension                           : MS Stereo
Codec ID                                 : A_MPEG/L3
Codec ID/Hint                            : MP3
Duration                                 : 1 h 38 min
Bit rate mode                            : Constant
Bit rate                                 : 64.0 kb/s
Channel(s)                               : 2 channels
Sampling rate                            : 44.1 kHz
Compression mode                         : Lossy
Stream size                              : 44.9 MiB (6%)
Title                                    : ☻rDX☻
Default                                  : Yes
Forced                                   : No

https://www.imdb.com/title/tt2160105/
........................................................................


Loading...


Trackers:
udp://tracker.coppersurfer.tk:6969/announce

18+ I Still See You 2018 Movies HDRip x264 AAC with Sample ☻rDX☻
Files
18+ I Still See You 2018 Movies HDRip x264 AAC ☻rDX☻.mkv693.90 MB
Sample ~ 18+ I Still See You 2018 Movies HDRip x264 AAC ☻rDX☻.mkv11.82 MB


Similar Torrents
Type Name Size Added S L
HD 18+ I Still See You 2018 Movies 720p HDRip x264 AA...
766.54 MB 2018-10-12 14:22:53 53 8
HD 18+ I Still See You 2018 Movies HDRip x264 5.1 wit...
927.85 MB 2018-10-12 08:04:26 29 16
HD 18+ I Still See You 2018 Movies 720p HDRip x264 5....
993.22 MB 2018-10-12 14:29:29 21 14

Comments:
No comments still posted
Loading...
Powered by TT | Page Generated In 0.043087 secs.
| RSS Feed | Feed Info