[Login] or [Signup]

First Cams

Xvid/x264



Non-English

Loading...

A Crooked Somebody 2018 Movies HDRip x264 5.1 with Sample ☻rDX☻


Complete Name :A Crooked Somebody 2018 Movies HDRip x264 5.1 with Sample ☻rDX☻
Download torrent:    A Crooked Somebody 2018 Movies HDRip x264 5.1 with Sample ☻rDX☻.torrent
Info Hash:259b8ba0da168ad21adad5f86e886fb4315bb949
Category:Movies  > HD
Torrent language:English  
Seeds | Leech:23 | 8
Complete: 122
Health:
Total Size:939.33 MB
Downloaded:10 Times
Added By:      teamrdx
Date Added:12-10-2018 07:34:am | Last Edit:  13-10-2018 02:53:pm

 

Main Technical Comments
A Crooked Somebody 2018 Movies HDRip x264 5.1 with Sample ☻rDX☻

:clapSCREEN SHOTS & POSTER::clap

https://iphonehosting.eu/2018/10/sale/index.html
https://iphonehosting.eu/2018/10/sale/1.html
https://iphonehosting.eu/2018/10/sale/2.html
https://iphonehosting.eu/2018/10/sale/3.html
https://iphonehosting.eu/2018/10/sale/4.html
https://iphonehosting.eu/2018/10/sale/5.html
https://iphonehosting.eu/2018/10/sale/6.html
https://iphonehosting.eu/2018/10/sale/7.html
https://iphonehosting.eu/2018/10/sale/8.html
https://iphonehosting.eu/2018/10/sale/9.html
https://iphonehosting.eu/2018/10/sale/10.html


File size                                : 930 MiB
Duration                                 : 1 h 42 min
Overall bit rate mode                    : Constant
Overall bit rate                         : 1 270 kb/s
Movie name                               : A Crooked Somebody 2018 Movies HDRip x264 5.1 ☻rDX☻

Video
ID                                       : 2
Format                                   : AVC
Format/Info                              : Advanced Video Codec
Format profile                           : [email protected]
Format settings, CABAC                   : Yes
Format settings, ReFrames                : 2 frames
Format settings, GOP                     : M=1, N=12
Codec ID                                 : V_MPEG4/ISO/AVC
Duration                                 : 1 h 42 min
Bit rate mode                            : Constant
Bit rate                                 : 887 kb/s
Width                                    : 720 pixels
Height                                   : 304 pixels
Display aspect ratio                     : 2.35:1
Frame rate mode                          : Constant
Frame rate                               : 23.976 FPS
Color space                              : YUV
Chroma subsampling                       : 4:2:0
Bit depth                                : 8 bits
Scan type                                : Progressive
Bits/(Pixel*Frame)                       : 0.169
Stream size                              : 630 MiB (68%)
Title                                    : ☻rDX☻
Default                                  : Yes
Forced                                   : No

Audio
ID                                       : 1
Format                                   : AC-3
Format/Info                              : Audio Coding 3
Mode extension                           : CM (complete main)
Format settings, Endianness              : Big
Codec ID                                 : A_AC3
Duration                                 : 1 h 42 min
Bit rate mode                            : Constant
Bit rate                                 : 384 kb/s
Channel(s)                               : 6 channels
Channel positions                        : Front: L C R, Side: L R, LFE
Sampling rate                            : 48.0 kHz
Frame rate                               : 31.250 FPS (1536 spf)
Bit depth                                : 16 bits
Compression mode                         : Lossy
Stream size                              : 281 MiB (30%)
Title                                    : ☻rDX☻
Default                                  : Yes
Forced                                   : No

https://www.imdb.com/title/tt5922124
........................................................................


Loading...


Trackers:
udp://tracker.coppersurfer.tk:6969/announce

A Crooked Somebody 2018 Movies HDRip x264 5.1 with Sample ☻rDX☻
Files
A Crooked Somebody 2018 Movies HDRip x264 5.1 ☻rDX☻.mkv930.31 MB
Sample ~ A Crooked Somebody 2018 Movies HDRip x264 5.1 ☻rDX☻.mkv9.02 MB


Similar Torrents
Type Name Size Added S L
Divx/Xvid A.Crooked.Somebody.2018.HDRip.XviD.AC3-EVO
1.35 GB 2018-10-11 17:25:29 1131 502
HD A Crooked Somebody 2018 720p WEB-DL x264 [MW]
969.38 MB 2018-10-12 22:28:15 56 9
h.264/x264 A.Crooked.Somebody.2018.HDRip.XviD.AC3-EVO[EtMovie...
1.35 GB 2018-10-11 16:40:41 49 18
HD A.Crooked.Somebody.2018.720p.WEB-DL.H264.AC3-EVO[E...
3.20 GB 2018-10-11 16:45:41 36 9
HD A Crooked Somebody 2018 Movies HDRip x264 AAC with...
705.03 MB 2018-10-12 06:27:49 29 10

Comments:
No comments still posted
Loading...
Powered by TT | Page Generated In 0.043576 secs.
| RSS Feed | Feed Info