[Login] or [Signup]

First Cams

Xvid/x264



Non-English

Loading...

A Crooked Somebody 2018 Movies HDRip x264 AAC with Sample ☻rDX☻


Complete Name :A Crooked Somebody 2018 Movies HDRip x264 AAC with Sample ☻rDX☻
Download torrent:    A Crooked Somebody 2018 Movies HDRip x264 AAC with Sample ☻rDX☻.torrent
Info Hash:0995a84bcf01b81d3794b94f32fa27149c0576ae
Category:Movies  > HD
Torrent language:English  
Seeds | Leech:29 | 10
Complete: 189
Health:
Total Size:705.03 MB
Downloaded:10 Times
Added By:      teamrdx
Date Added:12-10-2018 07:27:am | Last Edit:  13-10-2018 02:54:pm

 

Main Technical Comments
A Crooked Somebody 2018 Movies HDRip x264 AAC with Sample ☻rDX☻

:clapSCREEN SHOTS & POSTER::clap

https://iphonehosting.eu/2018/10/sale/index.html
https://iphonehosting.eu/2018/10/sale/1.html
https://iphonehosting.eu/2018/10/sale/2.html
https://iphonehosting.eu/2018/10/sale/3.html
https://iphonehosting.eu/2018/10/sale/4.html
https://iphonehosting.eu/2018/10/sale/5.html
https://iphonehosting.eu/2018/10/sale/6.html
https://iphonehosting.eu/2018/10/sale/7.html
https://iphonehosting.eu/2018/10/sale/8.html
https://iphonehosting.eu/2018/10/sale/9.html
https://iphonehosting.eu/2018/10/sale/10.html


File size                                : 696 MiB
Duration                                 : 1 h 42 min
Overall bit rate mode                    : Constant
Overall bit rate                         : 950 kb/s
Movie name                               : A Crooked Somebody 2018 Movies HDRip x264 AAC ☻rDX☻

Video
ID                                       : 2
Format                                   : AVC
Format/Info                              : Advanced Video Codec
Format profile                           : [email protected]
Format settings, CABAC                   : Yes
Format settings, ReFrames                : 2 frames
Format settings, GOP                     : M=1, N=12
Codec ID                                 : V_MPEG4/ISO/AVC
Duration                                 : 1 h 42 min
Bit rate mode                            : Constant
Bit rate                                 : 887 kb/s
Width                                    : 720 pixels
Height                                   : 304 pixels
Display aspect ratio                     : 2.35:1
Frame rate mode                          : Constant
Frame rate                               : 23.976 FPS
Color space                              : YUV
Chroma subsampling                       : 4:2:0
Bit depth                                : 8 bits
Scan type                                : Progressive
Bits/(Pixel*Frame)                       : 0.169
Stream size                              : 635 MiB (91%)
Title                                    : ☻rDX☻
Default                                  : Yes
Forced                                   : No

Audio
ID                                       : 1
Format                                   : MPEG Audio
Format version                           : Version 1
Format profile                           : Layer 3
Mode                                     : Joint stereo
Mode extension                           : MS Stereo
Codec ID                                 : A_MPEG/L3
Codec ID/Hint                            : MP3
Duration                                 : 1 h 42 min
Bit rate mode                            : Constant
Bit rate                                 : 64.0 kb/s
Channel(s)                               : 2 channels
Sampling rate                            : 44.1 kHz
Compression mode                         : Lossy
Stream size                              : 46.9 MiB (7%)
Title                                    : ☻rDX☻
Default                                  : Yes
Forced                                   : No

https://www.imdb.com/title/tt5922124
........................................................................


Loading...


Trackers:
udp://tracker.coppersurfer.tk:6969/announce

A Crooked Somebody 2018 Movies HDRip x264 AAC with Sample ☻rDX☻
Files
A Crooked Somebody 2018 Movies HDRip x264 AAC ☻rDX☻.mkv696.00 MB
Sample ~ A Crooked Somebody 2018 Movies HDRip x264 AAC ☻rDX☻.mkv9.03 MB


Similar Torrents
Type Name Size Added S L
Divx/Xvid A.Crooked.Somebody.2018.HDRip.XviD.AC3-EVO
1.35 GB 2018-10-11 17:25:29 1131 502
HD A Crooked Somebody 2018 720p WEB-DL x264 [MW]
969.38 MB 2018-10-12 22:28:15 56 9
h.264/x264 A.Crooked.Somebody.2018.HDRip.XviD.AC3-EVO[EtMovie...
1.35 GB 2018-10-11 16:40:41 49 18
HD A.Crooked.Somebody.2018.720p.WEB-DL.H264.AC3-EVO[E...
3.20 GB 2018-10-11 16:45:41 36 9
HD A Crooked Somebody 2018 Movies HDRip x264 5.1 with...
939.33 MB 2018-10-12 06:34:32 23 8

Comments:
No comments still posted
Loading...
Powered by TT | Page Generated In 0.042817 secs.
| RSS Feed | Feed Info