[Login] or [Signup]

First Cams

Xvid/x264



Non-English

Loading...

Goosebumps (2015) x 808 (1080p) 5.1 - 2.0 x264 Phun Psyz


Complete Name :Goosebumps (2015) x 808 (1080p) 5.1 - 2.0 x264 Phun Psyz
Download torrent:    Goosebumps (2015) x 808 (1080p) 5.1 - 2.0 x264 Phun Psyz.torrent
Info Hash:f5e38c2826dc308b712994b99ad5d26e5315f92d
Category:Movies  > HD
Torrent language:English  
Seeds | Leech:17 | 31
Complete: 158
Health:
Total Size:2.00 GB
Downloaded:14 Times
Added By:      phunpsyz
Date Added:12-10-2018 02:18:am | Last Edit:  13-10-2018 12:51:pm

 

IMDB
Goosebumps
Goosebumps Released 16 Oct 2015

Genre Adventure, Comedy, Family

Director Rob Letterman

Writer Darren Lemke (screenplay by), Scott Alexander (story by), Larry Karaszewski (story by), R.L. Stine (based on the "Goosebumps" books written by)

Actors Jack Black, Dylan Minnette, Odeya Rush, Ryan Lee

Plot A teenager teams up with the daughter of young adult horror author R. L. Stine after the writer's imaginary demons are set free on the town of Madison, Delaware.

Link http://www.imdb.com/title/tt1051904

Last Updated 21-10-2018 13:00:02
6.3

Votes 66,559

Main Technical Comments
www.imdb.com/title/tt1051904/

A teenager teams up with the daughter of young adult horror author R. L. Stine after the writer's imaginary demons are set free on the town of Madison, Delaware.

Source: BR







Format                      : MPEG-4
Format profile              : Base Media / Version 2
Codec ID                    : mp42 (isom/iso2/avc1/mp41)
File size                   : 2.00 GiB
Duration                    : 1 h 43 min
Overall bit rate mode       : Variable
Overall bit rate            : 2 770 kb/s

Video
ID                          : 1
Format                      : AVC
Format/Info                 : Advanced Video Codec
Format profile              : [email protected]
Format settings             : CABAC / 1 Ref Frames
Format settings, CABAC      : Yes
Format settings, ReFrames   : 1 frame
Codec ID                    : avc1
Codec ID/Info               : Advanced Video Coding
Duration                    : 1 h 43 min
Bit rate                    : 2 283 kb/s
Width                       : 1 920 pixels
Height                      : 808 pixels
Display aspect ratio        : 2.40:1
Frame rate mode             : Variable
Frame rate                  : 23.976 (24000/1001) FPS
Minimum frame rate          : 23.974 FPS
Maximum frame rate          : 23.981 FPS
Color space                 : YUV
Chroma subsampling          : 4:2:0
Bit depth                   : 8 bits
Scan type                   : Progressive
Bits/(Pixel*Frame)          : 0.061
Stream size                 : 1.65 GiB (82%)
Writing library             : x264 core 155 r2893 b00bcaf

Audio #1
ID                          : 2
Format                      : AC-3
Format/Info                 : Audio Coding 3
Commercial name             : Dolby Digital
Codec ID                    : ac-3
Duration                    : 1 h 43 min
Bit rate mode               : Constant
Bit rate                    : 320 kb/s
Channel(s)                  : 6 channels
Channel layout              : L R C LFE Ls Rs
Sampling rate               : 48.0 kHz
Frame rate                  : 31.250 FPS (1536 SPF)
Bit depth                   : 16 bits
Compression mode            : Lossy
Stream size                 : 236 MiB (12%)
Title                       : Surround / Surround
Language                    : English

Audio #2
ID                          : 3
Format                      : AAC LC
Format/Info                 : Advanced Audio Codec Low Complexity
Codec ID                    : mp4a-40-2
Duration                    : 1 h 43 min
Bit rate mode               : Variable
Bit rate                    : 160 kb/s
Channel(s)                  : 2 channels
Channel layout              : L R
Sampling rate               : 48.0 kHz
Frame rate                  : 46.875 FPS (1024 SPF)
Compression mode            : Lossy
Stream size                 : 118 MiB (6%)
Title                       : Stereo / Stereo
Language                    : English

Text
Language                    : English
Default                     : Yes
Forced                      : No
Language                    : English                
Default                     : No
Forced                      : No
........................................................................


Loading...


Trackers:
udp://tracker.opentrackr.org:1337/announce

Goosebumps (2015) x 808 (1080p) 5.1 - 2.0 x264 Phun Psyz
Files
Goosebumps (2015) x 808 (1080p) 5.1 - 2.0 x264 Phun Psyz.mp42.00 GB


Similar Torrents
Type Name Size Added S L
Cam/TS Goosebumps 2 Haunted Halloween 2018 HDTS.XViD.AC3-...
1.17 GB 2018-10-16 11:20:18 3287 1627
Cam/TS Goosebumps 2 Haunted Halloween 2018 720p HDCAM-1XB...
2.44 GB 2018-10-15 12:26:08 2002 524
Cam/TS Goosebumps 2 Haunted Halloween 2018 HDTS.x264.AC3-...
836.77 MB 2018-10-17 10:11:26 1360 594
Cam/TS Goosebumps 2 Haunted Halloween 2018 NEW 720p TS-1X...
2.44 GB 2018-10-16 10:05:20 763 362
Cam/TS Goosebumps 2 Haunted Halloween (2018) 720p HDCAM x...
711.83 MB 2018-10-15 19:22:12 215 64
4K Goosebumps (2015) x 1600 (2160p) HDR 5.1 x265 10bi...
2.67 GB 2018-10-11 20:58:10 105 46
Cam/TS Goosebumps 2 2018 720p TS LATINO-1XBET
2.44 GB 2018-10-17 10:10:33 87 38

Comments:
No comments still posted
Loading...
Powered by TT | Page Generated In 0.227205 secs.
| RSS Feed | Feed Info