[Login] or [Signup]

First Cams

Xvid/x264



Non-English

Loading...

Fanney Khan (2018) Hindi 720p HDRip x264 AAC Full Bollywood Movie 1.1GB -[SM Team]


Complete Name :Fanney Khan (2018) Hindi 720p HDRip x264 AAC Full Bollywood Movie 1.1GB -[SM Team]
Download torrent:    Fanney Khan (2018) Hindi 720p HDRip x264 AAC Full Bollywood Movie 1.1GB -[SM Team].torrent
Info Hash:441481a7331b1e161533f3fb60a154d946469d26
Category:Movies  > HD
Torrent language:Hindi  
Seeds | Leech:722 | 351
Complete: 3,407
Health:
Total Size:1.08 GB
Downloaded:14 Times
Added By:      AlashAhmed
Date Added:11-10-2018 11:39:pm | Last Edit:  13-10-2018 12:53:pm

 

IMDB
Fanney Khan
Fanney Khan Released N/A

Genre Drama

Director N/A

Writer N/A

Actors Anil Kapoor

Plot Fanney Khan is a struggling singer who wants to make his daughter a big name in music world.

Link https://www.imdb.com/title/tt6384386/

Last Updated 21-10-2018 14:29:34

Main Technical Comments
New Latest HD Movies Download Link :- https://skymovieshd.in
***********************************



==Media Info==

Video
ID : 1
Format : AVC
Format/Info : Advanced Video Codec
Format profile : [email protected]
Format settings : CABAC / 3 Ref Frames
Format settings, CABAC : Yes
Format settings, RefFrames : 3 frames
Codec ID : V_MPEG4/ISO/AVC
Duration : 2 h 9 min
Bit rate : 2 521 kb/s
Width : 1 280 pixels
Height : 544 pixels
Display aspect ratio : 2.35:1
Frame rate mode : Constant
Frame rate : 23.976 (23976/1000) FPS
Standard : Component
Color space : YUV
Chroma subsampling : 4:2:0
Bit depth : 8 bits
Scan type : Progressive
Bits/(Pixel*Frame) : 0.151
Stream size : 2.28 GiB (94%)
Title : SkyMoviesHD.in
Default : Yes
Forced : No
Color range : Limited
Color primaries : BT.709
Transfer characteristics : BT.709
Matrix coefficients : BT.709

Audio
ID : 2
Format : AAC LC
Format/Info : Advanced Audio Codec Low Complexity
Codec ID : A_AAC-2
Duration : 2 h 9 min
Bit rate : 161 kb/s
Channel(s) : 2 channels
Channel layout : L R
Sampling rate : 44.1 kHz
Frame rate : 43.066 FPS (1024 SPF)
Compression mode : Lossy
Stream size : 149 MiB (6%)
Title : SkyMoviesHD.in
Default : Yes
Forced : No










New Latest HD Movies Download Link :- https://skymovieshd.in
***********************************

........................................................................


Loading...


Trackers:
udp://tracker.coppersurfer.tk:6969/announce

Fanney Khan (2018) Hindi 720p HDRip x264 AAC Full Bollywood Movie 1.1GB -[SM Team]
Files
Fanney Khan (2018) Hindi 720p HD AVC MP4 UNTOUt (SkyMoviesHD.in).mkv1.08 GB


Similar Torrents
Type Name Size Added S L
h.264/x264 Fanney Khan (2018) Hindi 720p HDRip x264 AAC ESubs...
1,010.19 MB 2018-10-12 00:10:28 1528 721
Non-English Fanney Khan 2018 Hindi 1080p WEB-DL DD 5.1 x264 ES...
2.57 GB 2018-10-14 11:56:50 433 370
Non-English Fanney Khan 2018 WebRip Hindi 720p x264 AAC 5.1 ES...
1.13 GB 2018-10-12 13:55:16 415 317
Non-English Fanney Khan 2018 Hindi 720p PRE DVDRip x264 [MW]
1.15 GB 2018-08-04 18:41:20 384 86
h.264/x264 Fanney Khan 2018 Hindi Movies PDVDRip x264 Clean A...
705.59 MB 2018-08-04 04:50:07 244 93
HD Fanney Khan 2018 x264 720p Esub Hindi GOPISAHI
644.03 MB 2018-10-12 11:22:42 239 151
Cam/TS Fanney Khan 2018 Hindi PRE-H264-AC3 5.1-Zi$t
1.23 GB 2018-08-04 15:41:32 232 111
HD Fanney Khan (2018) 720p Hindi HDRip x264 AAC ESub ...
1.35 GB 2018-10-15 12:49:30 148 61
Cam/TS Fanney Khan (2018) Hindi Pre-DVDRip x264 AAC by Fu...
701.71 MB 2018-08-03 21:11:27 124 49
h.264/x264 Fanney Khan (2018) Hindi 720p WEB-DL x264 AAC-Sun ...
1.47 GB 2018-10-12 14:14:39 108 45

Comments:
No comments still posted
Loading...
Powered by TT | Page Generated In 0.530602 secs.
| RSS Feed | Feed Info