[Login] or [Signup]

First Cams

Xvid/x264



Non-English

Loading...

Outlawed 2018 1080p WEB-DL DD 5.1 x264 [MW]


Complete Name :Outlawed 2018 1080p WEB-DL DD 5.1 x264 [MW]
Download torrent:    Outlawed 2018 1080p WEB-DL DD 5.1 x264 [MW].torrent
Info Hash:6bea1055eee608d991b9443f9d01451dcb928726
Category:Movies  > HD
Torrent language:English  
Seeds | Leech:1,295 | 1,394
Complete: 12,090
Health:
Total Size:2.00 GB
Downloaded:13 Times
Added By:      MovieFreak
Date Added:11-10-2018 08:53:pm | Last Edit:  13-10-2018 10:46:am

 

Main Technical Comments




General
Format                                   : Matroska
Format version                           : Version 4 / Version 2
File size                                : 2.00 GiB
Duration                                 : 1 h 42 min
Overall bit rate                         : 2 802 kb/s

Video
ID                                       : 1
Format                                   : AVC
Format/Info                              : Advanced Video Codec
Format profile                           : [email protected]
Format settings                          : CABAC / 4 Ref Frames
Format settings, CABAC                   : Yes
Format settings, RefFrames               : 4 frames
Codec ID                                 : V_MPEG4/ISO/AVC
Duration                                 : 1 h 42 min
Bit rate                                 : 2 500 kb/s
Width                                    : 1 920 pixels
Height                                   : 812 pixels
Display aspect ratio                     : 2.35:1
Frame rate mode                          : Constant
Frame rate                               : 23.976 (24000/1001) FPS
Color space                              : YUV
Chroma subsampling                       : 4:2:0
Bit depth                                : 8 bits
Scan type                                : Progressive
Bits/(Pixel*Frame)                       : 0.067
Stream size                              : 1.72 GiB (86%)
Writing library                          : x264 core 155 r2901 7d0ff22
Default                                  : Yes
Forced                                   : No

Audio
ID                                       : 2
Format                                   : AC-3
Format/Info                              : Audio Coding 3
Codec ID                                 : A_AC3
Duration                                 : 1 h 42 min
Bit rate mode                            : Constant
Bit rate                                 : 384 kb/s
Channel(s)                               : 6 channels
Channel positions                        : Front: L C R, Side: L R, LFE
Sampling rate                            : 48.0 kHz
Frame rate                               : 31.250 FPS (1536 SPF)
Bit depth                                : 16 bits
Compression mode                         : Lossy
Stream size                              : 280 MiB (14%)
Language                                 : English
Service kind                             : Complete Main
Default                                  : Yes
Forced                                   : No


https://pichub.site/image/dD9dQ
https://pichub.site/image/dDHGv
https://pichub.site/image/dDTZd
https://pichub.site/image/dDQI9
https://pichub.site/image/dDWAu
https://pichub.site/image/dDb6R

........................................................................


Loading...


Trackers:
udp://tracker.coppersurfer.tk:6969/announce

Outlawed 2018 1080p WEB-DL DD 5.1 x264 [MW]
Files
Outlawed 2018 1080p WEB-DL DD 5.1 x264 [MW].mkv2.00 GB


Similar Torrents
Type Name Size Added S L
Divx/Xvid Outlawed.2018.HDRip.XviD.AC3-EVO
1.48 GB 2018-09-25 07:59:33 3482 1045
Divx/Xvid Outlawed 2018 .HDRip.XViD-ETRG
707.00 MB 2018-09-25 10:02:25 1079 430
HD 18+ Outlawed 2018 UNCENSORED Movies 720p HDRip x26...
1,019.91 MB 2018-09-25 15:47:34 264 120
HD 18+ Outlawed 2018 UNCENSORED Movies 720p HDRip x26...
783.92 MB 2018-09-25 15:34:39 111 86
HD Outlawed.2018.1080p.WEB-DL.DD5.1.H264-CMRG[EtHD]
3.52 GB 2018-09-25 08:01:25 94 50
h.264/x264 Outlawed.2018.1080p.WEB-DL.H264.AC3-EVO[EtHD]
3.14 GB 2018-09-25 23:20:17 90 38
HD Outlawed (2018) 720p WEB-DL x264 800MB - MkvHub
826.42 MB 2018-09-25 10:25:15 88 27
HD Outlawed.2018.1080p.WEB-DL.H264.AC3-EVO[EtHD]
3.14 GB 2018-09-25 07:19:17 88 60
h.264/x264 Outlawed.2018.HDRip.XviD.AC3-EVO[EtMovies]
1.48 GB 2018-09-25 08:13:38 54 3
h.264/x264 Outlawed (2018) 1080p HDRip x264 mkv
804.35 MB 2018-09-28 18:23:33 54 16

Comments:
No comments still posted
Loading...
Powered by TT | Page Generated In 0.035403 secs.
| RSS Feed | Feed Info