[Login] or [Signup]

First Cams

Xvid/x264



Non-English

Loading...

Tere Naam (2003) Hindi 720p BluRay x264 AC3 5.1 (640kbps) ESubs-Sun George


Complete Name :Tere Naam (2003) Hindi 720p BluRay x264 AC3 5.1 (640kbps) ESubs-Sun George
Download torrent:    Tere Naam (2003) Hindi 720p BluRay x264 AC3 5.1 (640kbps) ESubs-Sun George.torrent
Info Hash:f5eb271f170b0b9e524ca0e1447a8bca6ef48ef8
Category:Movies  > h.264/x264
Torrent language:Hindi  
Seeds | Leech:83 | 85
Complete: 291
Health:
Total Size:2.06 GB
Downloaded:12 Times
Added By:      sungeorge
Date Added:11-10-2018 04:20:pm | Last Edit:  13-10-2018 06:47:am

 

IMDB
Tere Naam
Tere Naam Released 15 Aug 2003

Genre Drama, Romance

Director Satish Kaushik

Writer Bala (original story and screenplay), Jainendra Jain (dialogue)

Actors Salman Khan, Bhoomika Chawla, Mahima Chaudhry, Sachin Khedekar

Plot Problems arise when Radhey Mohan, a delinquent falls in love with a girl named Nirjara.

Link http://www.imdb.com/title/tt0374271

Last Updated 10-12-2018 23:56:15
7.1

Votes 12,933

Main Technical Comments
Tere Naam (2003) Hindi 720p BluRay x264 AC3 5.1 (640kbps) ESubs-Sun George


https://www.imdb.com/title/tt0374271/





===================================================================

General
Format                      : Matroska
Format version              : Version 4 / Version 2
File size                   : 2.04 GiB
Duration                    : 2 h 16 min
Overall bit rate            : 2 128 kb/s
Movie name : Tere Naam (2003) Hindi 720p BluRay x264 AC3 5.1 (640kbps) ESubs-Sun George

===================================================================

Video
ID                          : 1
Format                      : AVC
Format/Info                 : Advanced Video Codec
Format profile              : [email protected]
Format settings             : 2 Ref Frames
Format settings, CABAC      : No
Format settings, ReFrames   : 2 frames
Codec ID                    : V_MPEG4/ISO/AVC
Duration                    : 2 h 16 min
Bit rate                    : 1 500 kb/s
Width                       : 1 280 pixels
Height                      : 536 pixels
Display aspect ratio        : 2.40:1
Frame rate mode             : Constant
Frame rate                  : 24.000 FPS
Color space                 : YUV
Chroma subsampling          : 4:2:0
Bit depth                   : 8 bits
Scan type                   : Progressive
Bits/(Pixel*Frame)          : 0.091
Stream size                 : 1.38 GiB (68%)
Title                       : Sun George

===================================================================

Audio
ID                          : 2
Format                      : AC-3
Format/Info                 : Audio Coding 3
Codec ID                    : A_AC3
Duration                    : 2 h 16 min
Bit rate mode               : Constant
Bit rate                    : 640 kb/s
Channel(s)                  : 6 channels
Channel positions           : Front: L C R, Side: L R, LFE
Sampling rate               : 48.0 kHz
Frame rate                  : 31.250 FPS (1536 SPF)
Bit depth                   : 16 bits
Compression mode            : Lossy
Delay relative to video     : -21 ms
Stream size                 : 627 MiB (30%)
Title                       : Sun George
Language                    : Hindi
Service kind                : Complete Main
Default                     : Yes
Forced                      : No

Menu
00:00:00.000                : :00:00:00.000
00:02:15.000                : :00:02:15.000
00:06:53.500                : :00:06:53.500
00:07:59.000                : :00:07:59.000
00:13:05.750                : :00:13:05.750
00:19:48.708                : :00:19:48.708
00:28:09.583                : :00:28:09.583
00:33:08.667                : :00:33:08.667
00:44:40.000                : :00:44:40.000
00:52:59.250                : :00:52:59.250
00:56:55.792                : :00:56:55.792
01:02:10.625                : :01:02:10.625
01:08:01.833                : :01:08:01.833
01:17:02.000                : :01:17:02.000
01:23:52.750                : :01:23:52.750
01:28:14.292                : :01:28:14.292
01:31:40.125                : :01:31:40.125
01:42:55.417                : :01:42:55.417
01:49:09.208                : :01:49:09.208
01:56:55.958                : :01:56:55.958
02:01:50.583                : :02:01:50.583
02:06:44.167                : :02:06:44.167














........................................................................


Loading...


Trackers:
udp://tracker.pirateparty.gr:6969/announce

Tere Naam (2003) Hindi 720p BluRay x264 AC3 5.1 (640kbps) ESubs-Sun George
Files
INFO.NFO55.00 B
SAMPLE Tere Naam (2003) Hindi 720p BluRay x264 AC3 5.1 (640kbps) ESubs-Sun George.mkv29.37 MB
Tere Naam (2003) Hindi 720p BluRay x264 AC3 5.1 (640kbps) ESubs-Sun George.mkv2.04 GB


Comments:
No comments still posted
Loading...
Powered by TT | Page Generated In 0.618648 secs.
| RSS Feed | Feed Info