[Login] or [Signup]

First Cams

Xvid/x264



Non-English

Loading...

Searching 2018 1080p HC HDRip AAC 2.0 x264 [MW]


Complete Name :Searching 2018 1080p HC HDRip AAC 2.0 x264 [MW]
Download torrent:    Searching 2018 1080p HC HDRip AAC 2.0 x264 [MW].torrent
Info Hash:2d7e8c60c94452150786a069a05f6fc092579dc9
Category:Movies  > HD
Torrent language:English  
Seeds | Leech:441 | 141
Complete: 4,016
Health:
Total Size:1.60 GB
Downloaded:14 Times
Added By:      MovieFreak
Date Added:11-10-2018 03:46:pm | Last Edit:  13-10-2018 06:48:am

 

Main Technical Comments




General
Format                                   : Matroska
Format version                           : Version 4 / Version 2
File size                                : 1.60 GiB
Duration                                 : 1 h 42 min
Overall bit rate                         : 2 242 kb/s

Video
ID                                       : 1
Format                                   : AVC
Format/Info                              : Advanced Video Codec
Format profile                           : [email protected]
Format settings                          : CABAC / 4 Ref Frames
Format settings, CABAC                   : Yes
Format settings, RefFrames               : 4 frames
Codec ID                                 : V_MPEG4/ISO/AVC
Duration                                 : 1 h 42 min
Bit rate                                 : 2 000 kb/s
Width                                    : 1 920 pixels
Height                                   : 1 080 pixels
Display aspect ratio                     : 16:9
Frame rate mode                          : Constant
Frame rate                               : 30.000 FPS
Color space                              : YUV
Chroma subsampling                       : 4:2:0
Bit depth                                : 8 bits
Scan type                                : Progressive
Bits/(Pixel*Frame)                       : 0.032
Stream size                              : 1.41 GiB (88%)
Writing library                          : x264 core 155 r2901 7d0ff22
Default                                  : Yes
Forced                                   : No

Audio
ID                                       : 2
Format                                   : AAC
Format/Info                              : Advanced Audio Codec
Format profile                           : LC
Codec ID                                 : A_AAC-2
Duration                                 : 1 h 42 min
Bit rate                                 : 256 kb/s
Channel(s)                               : 2 channels
Channel positions                        : Front: L R
Sampling rate                            : 48.0 kHz
Frame rate                               : 46.875 FPS (1024 SPF)
Compression mode                         : Lossy
Stream size                              : 187 MiB (11%)
Language                                 : English
Default                                  : Yes
Forced                                   : No


https://pichub.site/image/dSQjN
https://pichub.site/image/dSF2T
https://pichub.site/image/dSTzV
https://pichub.site/image/dSHY0
https://pichub.site/image/dS1nb
https://pichub.site/image/dSZmy

........................................................................


Loading...


Trackers:
udp://tracker.coppersurfer.tk:6969/announce

Searching 2018 1080p HC HDRip AAC 2.0 x264 [MW]
Files
Searching 2018 1080p HC HDRip AAC 2.0 x264 [MW].mkv1.60 GB


Similar Torrents
Type Name Size Added S L
Cam/TS Searching 2018 720p TS-1XBET
2.44 GB 2018-09-05 23:59:10 5460 4007
Divx/Xvid Searching.2018.HC.HDRip.XviD.AC3-EVO
1.37 GB 2018-10-10 13:50:57 4245 1338
Cam/TS Searching.2018.HD-TS.XViD.AC3-ETRG
1.23 GB 2018-09-08 11:01:22 899 367
Cam/TS Searching 2018 720p TS Rip x264 [MW]
1.18 GB 2018-09-06 21:06:33 762 344
HD Searching 2018 Movies 720p HDRip x264 AAC with Sam...
853.62 MB 2018-10-11 05:58:05 727 336
Video AssParade - Alycia Starr (Big Booty Searching For ...
493.42 MB 2018-04-16 13:07:03 341 197
HD Searching 2018 720p KORSUB HDRip x264 [MW]
891.37 MB 2018-10-11 09:42:00 228 64
Cam/TS Searching 2018 Movies HD TS x264 Clean Audio AAC N...
705.21 MB 2018-09-06 16:25:49 186 59
h.264/x264 Searching.2018.HC.HDRip.XviD.AC3-EVO[EtMovies]
1.37 GB 2018-10-10 13:53:11 117 12
Ebooks Criminal Women 1850-1920 - Researching the Lives o...
2.64 MB 2018-10-08 14:00:42 117 15

Comments:
No comments still posted
Loading...
Powered by TT | Page Generated In 0.043256 secs.
| RSS Feed | Feed Info