[Login] or [Signup]

First Cams

Xvid/x264



Non-English

Loading...

Jurassic World Fallen Kingdom (2018) 720p BluRay (Dual Audio) {Hindi 2.0 + Eng DD 5.1} x264 AC3-Sun ...


Complete Name :Jurassic World Fallen Kingdom (2018) 720p BluRay (Dual Audio) {Hindi 2.0 + Eng DD 5.1} x264 AC3-Sun George
Download torrent:    Jurassic World Fallen Kingdom (2018) 720p BluRay (Dual Audio) {Hindi 2.0 + Eng DD 5.1} x264 AC3-Sun ....torrent
Info Hash:dd1c8a4c49f16b6e886de2a4f5f6d4775f3fd791
Category:Movies  > Dubs/Dual Audio
Torrent language:Hindi  
Seeds | Leech:158 | 85
Complete: 996
Health:
Total Size:1.32 GB
Downloaded:14 Times
Added By:      sungeorge
Date Added:11-10-2018 03:30:pm | Last Edit:  13-10-2018 06:48:am

 

IMDB
Jurassic World: Fallen Kingdom
Jurassic World: Fallen Kingdom Released 22 Jun 2018

Genre Action, Adventure, Sci-Fi

Director J.A. Bayona

Writer Derek Connolly, Colin Trevorrow, Michael Crichton (based on characters created by)

Actors Chris Pratt, Bryce Dallas Howard, Rafe Spall, Justice Smith

Plot When the island's dormant volcano begins roaring to life, Owen and Claire mount a campaign to rescue the remaining dinosaurs from this extinction-level event.

Link http://www.imdb.com/title/tt4881806

Last Updated 11-12-2018 00:51:58
6.2

Votes 177,850

Main Technical Comments
Jurassic World Fallen Kingdom (2018) 720p BluRay (Dual Audio) {Hindi 2.0 + Eng DD 5.1} x264 AC3-Sun George


https://www.imdb.com/title/tt4881806/





===================================================================

General
Format                      : Matroska
Format version              : Version 4 / Version 2
File size                   : 1.30 GiB
Duration                    : 2 h 8 min
Overall bit rate            : 1 452 kb/s
Movie name : Jurassic World Fallen Kingdom (2018) 720p BluRay (Dual Audio) {Hindi 2.0 + Eng DD 5.1} x264 AC3-Sun George

===================================================================

Video
ID                          : 1
Format                      : AVC
Format/Info                 : Advanced Video Codec
Format profile              : [email protected]
Format settings             : CABAC / 8 Ref Frames
Format settings, CABAC      : Yes
Format settings, ReFrames   : 8 frames
Codec ID                    : V_MPEG4/ISO/AVC
Duration                    : 2 h 8 min
Bit rate                    : 1 000 kb/s
Width                       : 1 280 pixels
Height                      : 544 pixels
Display aspect ratio        : 2.35:1
Frame rate mode             : Constant
Frame rate                  : 23.976 (24000/1001) FPS
Color space                 : YUV
Chroma subsampling          : 4:2:0
Bit depth                   : 8 bits
Scan type                   : Progressive
Bits/(Pixel*Frame)          : 0.060
Stream size                 : 919 MiB (69%)

===================================================================

Audio #1
ID                          : 2
Format                      : AC-3
Format/Info                 : Audio Coding 3
Codec ID                    : A_AC3
Duration                    : 2 h 8 min
Bit rate mode               : Constant
Bit rate                    : 224 kb/s
Channel(s)                  : 6 channels
Channel positions           : Front: L C R, Side: L R, LFE
Sampling rate               : 48.0 kHz
Frame rate                  : 31.250 FPS (1536 SPF)
Bit depth                   : 16 bits
Compression mode            : Lossy
Delay relative to video     : 9 ms
Stream size                 : 206 MiB (15%)
Language                    : English
Service kind                : Complete Main
Default                     : No
Forced                      : No

===================================================================

Audio #2
ID                          : 3
Format                      : AC-3
Format/Info                 : Audio Coding 3
Codec ID                    : A_AC3
Duration                    : 2 h 8 min
Bit rate mode               : Constant
Bit rate                    : 224 kb/s
Channel(s)                  : 2 channels
Channel positions           : Front: L R
Sampling rate               : 44.1 kHz
Frame rate                  : 28.711 FPS (1536 SPF)
Bit depth                   : 16 bits
Compression mode            : Lossy
Stream size                 : 206 MiB (15%)
Language                    : Hindi
Service kind                : Complete Main
Default                     : Yes
Forced                      : No

===================================================================

Text
ID                          : 4
Format                      : UTF-8
Codec ID                    : S_TEXT/UTF8
Codec ID/Info               : UTF-8 Plain Text
Duration                    : 1 h 55 min
Bit rate                    : 43 b/s
Count of elements           : 1379
Stream size                 : 37.2 KiB (0%)
Language                    : English
Default                     : Yes
Forced                      : No











........................................................................


Loading...


Trackers:
udp://tracker.pirateparty.gr:6969/announce

Jurassic World Fallen Kingdom (2018) 720p BluRay (Dual Audio) {Hindi 2.0 + Eng DD 5.1} x264 AC3-Sun George
Files
INFO.NFO55.00 B
Jurassic World Fallen Kingdom (2018) 720p BluRay (Dual Audio) {Hindi 2.0 + Eng DD 5.1} x264 AC3-Sun George.mkv1.30 GB
SAMPLE Jurassic World Fallen Kingdom (2018) 720p BluRay (Dual Audio) {Hindi 2.0 + Eng DD 5.1} x264 AC3-Sun George.mkv19.02 MB


Similar Torrents
Type Name Size Added S L
Divx/Xvid Jurassic World Fallen Kingdom 2018.HC.HDRip.XViD.A...
1.37 GB 2018-07-27 12:50:54 36833 14496
Cam/TS Jurassic World Fallen Kingdom.2018.HDCAM.XViD.AC3-...
1.32 GB 2018-06-07 21:21:08 15069 4058
HD Jurassic.World.Fallen.Kingdom.2018.1080p.HDTC.x264...
2.53 GB 2018-06-22 00:39:05 9997 4219
HD Jurassic.World.2018.1080p.WEB-DL.H264.AC3-EVO[EtHD...
4.47 GB 2018-09-04 07:17:40 8295 4232
Cam/TS Jurassic World Fallen Kingdom 2018 NEW HD-TS.XViD....
1.35 GB 2018-07-18 13:33:17 6894 3333
Divx/Xvid The Jurassic Games.2018.HDRip.XviD.AC3-EVO
1.37 GB 2018-05-22 15:27:15 6447 3345
HD Jurassic.World.2018.1080p.HC.HDRip.X264.AC3-EVO[Et...
5.52 GB 2018-07-27 17:36:42 3973 1286
HD Jurassic World 2018 1080p HC HDRip X264 [MW]
2.40 GB 2018-07-29 07:07:38 2729 393
Cam/TS Jurassic World Fallen Kingdom 2018 PROPER 1080p HD...
2.78 GB 2018-06-22 14:24:44 2688 846
HD Jurassic.World.Fallen.Kingdom.2018.720p.KORSUB.HDR...
3.09 GB 2018-07-27 13:14:30 2613 637

Comments:
No comments still posted
Loading...
Powered by TT | Page Generated In 0.215475 secs.
| RSS Feed | Feed Info