[Login] or [Signup]

First Cams

Xvid/x264



Non-English

Loading...

Sorry to Bother You 2018 1080p BluRay x264 DTS [MW]


Complete Name :Sorry to Bother You 2018 1080p BluRay x264 DTS [MW]
Download torrent:    Sorry to Bother You 2018 1080p BluRay x264 DTS [MW].torrent
Info Hash:c9bb610189d9321c7d208714acd7bfaa4cb0386f
Category:Movies  > HD
Torrent language:English  
Seeds | Leech:187 | 54
Complete: 1,578
Health:
Total Size:2.56 GB
Downloaded:12 Times
Added By:      MovieFreak
Date Added:11-10-2018 02:04:pm | Last Edit:  13-10-2018 05:45:am

 

Main Technical Comments




General
Format                                   : Matroska
Format version                           : Version 4 / Version 2
File size                                : 2.56 GiB
Duration                                 : 1 h 50 min
Overall bit rate                         : 3 309 kb/s

Video
ID                                       : 1
Format                                   : AVC
Format/Info                              : Advanced Video Codec
Format profile                           : [email protected]
Format settings                          : CABAC / 4 Ref Frames
Format settings, CABAC                   : Yes
Format settings, RefFrames               : 4 frames
Codec ID                                 : V_MPEG4/ISO/AVC
Duration                                 : 1 h 50 min
Bit rate                                 : 2 600 kb/s
Width                                    : 1 920 pixels
Height                                   : 808 pixels
Display aspect ratio                     : 2.40:1
Frame rate mode                          : Constant
Frame rate                               : 23.976 (24000/1001) FPS
Color space                              : YUV
Chroma subsampling                       : 4:2:0
Bit depth                                : 8 bits
Scan type                                : Progressive
Bits/(Pixel*Frame)                       : 0.070
Stream size                              : 1.97 GiB (77%)
Writing library                          : x264 core 155 r2901 7d0ff22
Default                                  : Yes
Forced                                   : No

Audio
ID                                       : 2
Format                                   : DTS
Format/Info                              : Digital Theater Systems
Codec ID                                 : A_DTS
Duration                                 : 1 h 50 min
Bit rate mode                            : Constant
Bit rate                                 : 756 kb/s
Channel(s)                               : 6 channels
Channel positions                        : Front: L C R, Side: L R, LFE
Sampling rate                            : 48.0 kHz
Frame rate                               : 93.750 FPS (512 SPF)
Bit depth                                : 16 bits
Compression mode                         : Lossy
Stream size                              : 599 MiB (23%)
Language                                 : English
Default                                  : Yes
Forced                                   : No

Text
ID                                       : 3
Format                                   : VobSub
Muxing mode                              : zlib
Codec ID                                 : S_VOBSUB
Codec ID/Info                            : Picture based subtitle format used on DVDs
Duration                                 : 1 h 47 min
Bit rate                                 : 8 972 b/s
Count of elements                        : 2086
Stream size                              : 6.88 MiB (0%)
Language                                 : English
Default                                  : Yes
Forced                                   : No


https://pichub.site/image/dSuer
https://pichub.site/image/dSUvQ
https://pichub.site/image/dSvHv
https://pichub.site/image/dS0Dd
https://pichub.site/image/dSLg9
https://pichub.site/image/dSrnu

........................................................................


Loading...


Trackers:
udp://tracker.coppersurfer.tk:6969/announce

Sorry to Bother You 2018 1080p BluRay x264 DTS [MW]
Files
Sorry to Bother You 2018 1080p BluRay x264 DTS [MW].mkv2.56 GB


Similar Torrents
Type Name Size Added S L
Divx/Xvid Sorry.to.Bother.You.2018.HDRip.XviD.AC3-EVO
1.37 GB 2018-10-09 07:34:23 2868 988
HD Sorry.to.Bother.You.2018.1080p.WEB-DL.DD5.1.H264-C...
3.81 GB 2018-10-09 07:44:28 853 247
HD Sorry to Bother You 2018 1080p WEB-DL DD 5.1 x264 ...
1.95 GB 2018-10-10 06:47:03 115 39
h.264/x264 Sorry to Bother You (2018) 720p Web-DL x264 AAC ES...
871.44 MB 2018-10-09 15:51:54 102 36
HD 18+ Sorry To Bother You 2018 Movies 720p HDRip x26...
914.22 MB 2018-10-09 17:07:49 65 19
HD 18+ Sorry To Bother You 2018 Movies HDRip x264 AAC...
706.02 MB 2018-10-09 17:07:36 65 75
h.264/x264 Sorry.to.Bother.You.2018.720p.WEB-DL.DD5.1.H264-CM...
3.42 GB 2018-10-09 07:09:02 64 16
HD Sorry to Bother You (2018) 720p WEB-DL x264 900MB ...
890.30 MB 2018-10-09 10:09:05 61 22
HD 18+ Sorry To Bother You 2018 Movies HDRip x264 5.1...
962.31 MB 2018-10-09 17:07:12 39 12
HD Sorry.to.Bother.You.2018.1080p.BluRay.x264-DRONES[...
7.96 GB 2018-10-10 11:43:55 37 40

Comments:
No comments still posted
Loading...
Powered by TT | Page Generated In 0.048916 secs.
| RSS Feed | Feed Info