[Login] or [Signup]

First Cams

Xvid/x264



Non-English

Loading...

22 Chaser 2018 1080p WEB-DL DD 5.1 x264 [MW]


Complete Name :22 Chaser 2018 1080p WEB-DL DD 5.1 x264 [MW]
Download torrent:    22 Chaser 2018 1080p WEB-DL DD 5.1 x264 [MW].torrent
Info Hash:d576faef9609ca6753395a25d041a7c3c1f09100
Category:Movies  > HD
Torrent language:English  
Seeds | Leech:35 | 24
Complete: 551
Health:
Total Size:1.54 GB
Downloaded:10 Times
Added By:      MovieFreak
Date Added:11-10-2018 01:20:pm | Last Edit:  13-10-2018 04:46:am

 

Main Technical Comments




General
Format                                   : Matroska
Format version                           : Version 4 / Version 2
File size                                : 1.54 GiB
Duration                                 : 1 h 26 min
Overall bit rate                         : 2 530 kb/s

Video
ID                                       : 1
Format                                   : AVC
Format/Info                              : Advanced Video Codec
Format profile                           : [email protected]
Format settings                          : CABAC / 4 Ref Frames
Format settings, CABAC                   : Yes
Format settings, RefFrames               : 4 frames
Codec ID                                 : V_MPEG4/ISO/AVC
Duration                                 : 1 h 26 min
Bit rate                                 : 2 200 kb/s
Width                                    : 1 920 pixels
Height                                   : 1 080 pixels
Display aspect ratio                     : 16:9
Frame rate mode                          : Constant
Frame rate                               : 23.976 (24000/1001) FPS
Color space                              : YUV
Chroma subsampling                       : 4:2:0
Bit depth                                : 8 bits
Scan type                                : Progressive
Bits/(Pixel*Frame)                       : 0.044
Stream size                              : 1.30 GiB (85%)
Writing library                          : x264 core 155 r2901 7d0ff22
Default                                  : Yes
Forced                                   : No

Audio
ID                                       : 2
Format                                   : AC-3
Format/Info                              : Audio Coding 3
Codec ID                                 : A_AC3
Duration                                 : 1 h 26 min
Bit rate mode                            : Constant
Bit rate                                 : 384 kb/s
Channel(s)                               : 6 channels
Channel positions                        : Front: L C R, Side: L R, LFE
Sampling rate                            : 48.0 kHz
Frame rate                               : 31.250 FPS (1536 SPF)
Bit depth                                : 16 bits
Compression mode                         : Lossy
Stream size                              : 239 MiB (15%)
Language                                 : English
Service kind                             : Complete Main
Default                                  : Yes
Forced                                   : No


https://pichub.site/image/dSiHI
https://pichub.site/image/dS8g8
https://pichub.site/image/dSKM5
https://pichub.site/image/dSAnJ
https://pichub.site/image/dSgth
https://pichub.site/image/dSmpj

........................................................................


Loading...


Trackers:
udp://tracker.coppersurfer.tk:6969/announce

22 Chaser 2018 1080p WEB-DL DD 5.1 x264 [MW]
Files
22 Chaser 2018 1080p WEB-DL DD 5.1 x264 [MW].mkv1.54 GB


Similar Torrents
Type Name Size Added S L
Divx/Xvid 22.Chaser.2018.HDRip.XviD.AC3-EVO
1.29 GB 2018-10-10 14:01:46 2225 834
HD 22 Chaser 2018 Movies HDRip x264 AAC with Sample ...
705.96 MB 2018-10-10 17:18:44 124 73
HD 22.Chaser.2018.1080p.WEB-DL.H264.AC3-EVO[EtHD]
3.39 GB 2018-10-10 13:57:51 88 51
HD 22 Chaser 2018 Movies HDRip x264 5.1 with Sample ...
901.85 MB 2018-10-10 17:25:08 55 14
h.264/x264 22.Chaser.2018.HDRip.XviD.AC3-EVO[EtMovies]
1.29 GB 2018-10-10 13:40:54 49 22
HD 22 Chaser (2018) English HDRip 720p - x264 AAC 700...
751.16 MB 2018-10-11 14:42:10 2 14
h.264/x264 22.Chaser.2018.HDRip.AC3.X264-CMRG[EtMovies]
1.31 GB 2018-10-10 14:49:41 1 4

Comments:
No comments still posted
Loading...
Powered by TT | Page Generated In 0.048515 secs.
| RSS Feed | Feed Info