[Login] or [Signup]

First Cams

Xvid/x264



Non-English

Loading...

Searching 2018 720p KORSUB HDRip x264 [MW]


Complete Name :Searching 2018 720p KORSUB HDRip x264 [MW]
Download torrent:    Searching 2018 720p KORSUB HDRip x264 [MW].torrent
Info Hash:354d4661a993f87aee6fda57ab1f6ad6df2d18ba
Category:Movies  > HD
Torrent language:English  
Seeds | Leech:228 | 64
Complete: 3,214
Health:
Total Size:891.37 MB
Downloaded:18 Times
Added By:      MovieFreak
Date Added:11-10-2018 10:42:am | Last Edit:  13-10-2018 02:43:am

 

IMDB
Searching
Searching Released 31 Aug 2018

Genre Drama, Mystery, Thriller

Director Aneesh Chaganty

Writer Aneesh Chaganty, Sev Ohanian

Actors John Cho, Sara Sohn, Alex Jayne Go, Megan Liu

Plot After his 16-year-old daughter goes missing, a desperate father breaks into her laptop to look for clues to find her.

Link http://www.imdb.com/title/tt7668870

Last Updated 21-10-2018 14:35:44
7.9

Votes 21,053

Main Technical Comments




General
Format                                   : Matroska
Format version                           : Version 4 / Version 2
File size                                : 891 MiB
Duration                                 : 1 h 42 min
Overall bit rate                         : 1 220 kb/s

Video
ID                                       : 1
Format                                   : AVC
Format/Info                              : Advanced Video Codec
Format profile                           : [email protected]
Format settings                          : CABAC / 4 Ref Frames
Format settings, CABAC                   : Yes
Format settings, RefFrames               : 4 frames
Codec ID                                 : V_MPEG4/ISO/AVC
Duration                                 : 1 h 42 min
Bit rate                                 : 1 100 kb/s
Width                                    : 1 280 pixels
Height                                   : 720 pixels
Display aspect ratio                     : 16:9
Frame rate mode                          : Constant
Frame rate                               : 30.000 FPS
Color space                              : YUV
Chroma subsampling                       : 4:2:0
Bit depth                                : 8 bits
Scan type                                : Progressive
Bits/(Pixel*Frame)                       : 0.040
Stream size                              : 796 MiB (89%)
Writing library                          : x264 core 155 r2901 7d0ff22
Default                                  : Yes
Forced                                   : No

Audio
ID                                       : 2
Format                                   : AAC
Format/Info                              : Advanced Audio Codec
Format profile                           : LC
Codec ID                                 : A_AAC-2
Duration                                 : 1 h 42 min
Bit rate                                 : 128 kb/s
Channel(s)                               : 2 channels
Channel positions                        : Front: L R
Sampling rate                            : 48.0 kHz
Frame rate                               : 46.875 FPS (1024 SPF)
Compression mode                         : Lossy
Stream size                              : 93.5 MiB (10%)
Language                                 : English
Default                                  : Yes
Forced                                   : No


https://pichub.site/image/dRLfT
https://pichub.site/image/dRooD
https://pichub.site/image/dRrhN
https://pichub.site/image/dRpWZ
https://pichub.site/image/dR5Vg
https://pichub.site/image/dRlUI

........................................................................


Loading...


Trackers:
udp://tracker.coppersurfer.tk:6969/announce

Searching 2018 720p KORSUB HDRip x264 [MW]
Files
Searching 2018 720p KORSUB HDRip x264 [MW].mkv891.37 MB


Similar Torrents
Type Name Size Added S L
Cam/TS Searching 2018 720p TS-1XBET
2.44 GB 2018-09-05 23:59:10 5460 4007
Divx/Xvid Searching.2018.HC.HDRip.XviD.AC3-EVO
1.37 GB 2018-10-10 13:50:57 4245 1338
Cam/TS Searching.2018.HD-TS.XViD.AC3-ETRG
1.23 GB 2018-09-08 11:01:22 899 367
Cam/TS Searching 2018 720p TS Rip x264 [MW]
1.18 GB 2018-09-06 21:06:33 762 344
HD Searching 2018 Movies 720p HDRip x264 AAC with Sam...
853.62 MB 2018-10-11 05:58:05 727 336
HD Searching 2018 1080p HC HDRip AAC 2.0 x264 [MW]
1.60 GB 2018-10-11 14:46:46 441 141
Video AssParade - Alycia Starr (Big Booty Searching For ...
493.42 MB 2018-04-16 13:07:03 341 197
Cam/TS Searching 2018 Movies HD TS x264 Clean Audio AAC N...
705.21 MB 2018-09-06 16:25:49 186 59
h.264/x264 Searching.2018.HC.HDRip.XviD.AC3-EVO[EtMovies]
1.37 GB 2018-10-10 13:53:11 117 12
Ebooks Criminal Women 1850-1920 - Researching the Lives o...
2.64 MB 2018-10-08 14:00:42 117 15

Comments:
No comments still posted
Loading...
Powered by TT | Page Generated In 0.716293 secs.
| RSS Feed | Feed Info