[Login] or [Signup]

First Cams

Xvid/x264



Non-English

Loading...

22 July 2018 720p WEBRip x264 ESub [MW]


Complete Name :22 July 2018 720p WEBRip x264 ESub [MW]
Download torrent:    22 July 2018 720p WEBRip x264 ESub [MW].torrent
Info Hash:635d1dc001d71880f0170e8badd4c3c0ba49a32e
Category:Movies  > HD
Torrent language:English  
Seeds | Leech:81 | 20
Complete: 1,345
Health:
Total Size:1.21 GB
Downloaded:10 Times
Added By:      MovieFreak
Date Added:11-10-2018 10:38:am | Last Edit:  13-10-2018 02:43:am

 

Main Technical Comments




General
Format                                   : Matroska
Format version                           : Version 4 / Version 2
File size                                : 1.21 GiB
Duration                                 : 2 h 24 min
Overall bit rate                         : 1 206 kb/s

Video
ID                                       : 1
Format                                   : AVC
Format/Info                              : Advanced Video Codec
Format profile                           : [email protected]
Format settings                          : CABAC / 4 Ref Frames
Format settings, CABAC                   : Yes
Format settings, RefFrames               : 4 frames
Codec ID                                 : V_MPEG4/ISO/AVC
Duration                                 : 2 h 24 min
Bit rate                                 : 1 100 kb/s
Width                                    : 1 280 pixels
Height                                   : 692 pixels
Display aspect ratio                     : 1.85:1
Frame rate mode                          : Constant
Frame rate                               : 24.000 FPS
Color space                              : YUV
Chroma subsampling                       : 4:2:0
Bit depth                                : 8 bits
Scan type                                : Progressive
Bits/(Pixel*Frame)                       : 0.052
Stream size                              : 1.08 GiB (89%)
Writing library                          : x264 core 155 r2901 7d0ff22
Default                                  : Yes
Forced                                   : No

Audio
ID                                       : 2
Format                                   : AAC
Format/Info                              : Advanced Audio Codec
Format profile                           : LC
Codec ID                                 : A_AAC-2
Duration                                 : 2 h 24 min
Bit rate                                 : 128 kb/s
Channel(s)                               : 2 channels
Channel positions                        : Front: L R
Sampling rate                            : 48.0 kHz
Frame rate                               : 46.875 FPS (1024 SPF)
Compression mode                         : Lossy
Stream size                              : 132 MiB (11%)
Language                                 : English
Default                                  : Yes
Forced                                   : No

Text
ID                                       : 3
Format                                   : UTF-8
Codec ID                                 : S_TEXT/UTF8
Codec ID/Info                            : UTF-8 Plain Text
Duration                                 : 2 h 14 min
Bit rate                                 : 47 b/s
Count of elements                        : 1540
Stream size                              : 46.6 KiB (0%)
Language                                 : English
Default                                  : No
Forced                                   : No


https://pichub.site/image/dRXR8
https://pichub.site/image/dRsP5
https://pichub.site/image/dRnKJ
https://pichub.site/image/dRZJh
https://pichub.site/image/dR1hj
https://pichub.site/image/dR9or

........................................................................


Loading...


Trackers:
udp://tracker.coppersurfer.tk:6969/announce

22 July 2018 720p WEBRip x264 ESub [MW]
Files
22 July 2018 720p WEBRip x264 ESub [MW].mkv1.21 GB


Similar Torrents
Type Name Size Added S L
Divx/Xvid 22.July.2018.HDRip.XviD.AC3-EVO
1.55 GB 2018-10-10 13:38:28 3641 1170
Video PublicBang - Lexi Luna (Lexi Having Wild Fun Aroun...
576.55 MB 2018-07-22 17:14:33 246 80
Video TrueAnal - Kagney Linn Karter (Tapping KagneyS Ass...
271.56 MB 2018-07-23 14:04:15 192 7
HD 22 July 2018 1080p WEBRip DD 5.1 x264 ESub [MW]
2.53 GB 2018-10-11 13:47:34 148 46
Video NubileFilms - Emma Hix (Sexual Impulses) NEW 22 Ju...
291.38 MB 2018-07-22 17:14:15 140 65
h.264/x264 22.July.2018.720p.NF.WEB-DL.DD+5.1.H264-CMRG[EtHD]
3.59 GB 2018-10-10 09:31:21 121 50
Video BrazzersExxtra - Kira Noir (Kira Finds Her Motivat...
435.83 MB 2018-07-22 17:12:50 108 27
Video EvilAngel - Jenny Blighe (Cam Girl Jennys First Pr...
385.99 MB 2018-07-23 14:00:52 103 23
Video FakeTaxi - Stacey Saran (Sex addict fucks in taxi)...
412.23 MB 2018-07-23 14:01:08 100 4
HD 22 July 2018 Movies HDRip x264 AAC with Sample ☻...
787.93 MB 2018-10-10 14:21:05 97 56

Comments:
No comments still posted
Loading...
Powered by TT | Page Generated In 0.042795 secs.
| RSS Feed | Feed Info