[Login] or [Signup]

First Cams

Xvid/x264



Non-English

Loading...

Zoo Wars 2018 Movies HDRip x264 AAC with Sample ☻rDX☻


Complete Name :Zoo Wars 2018 Movies HDRip x264 AAC with Sample ☻rDX☻
Download torrent:    Zoo Wars 2018 Movies HDRip x264 AAC with Sample ☻rDX☻.torrent
Info Hash:846bb9452fb7f4543f415da0a42b8479fbce7c13
Category:Movies  > HD
Torrent language:English  
Seeds | Leech:103 | 74
Complete: 671
Health:
Total Size:705.40 MB
Downloaded:10 Times
Added By:      teamrdx
Date Added:11-10-2018 09:56:am | Last Edit:  12-10-2018 10:50:pm

 

IMDB
Zoo Wars
Zoo Wars Released 27 Apr 2018

Genre N/A

Director N/A

Writer Evan Tramel

Actors N/A

Plot Nuke is a regular city elephant with a boring desk job yearning for great space adventures. When Nuke joins forces with rogue warrior Squeeze Whistle, a fearless space squirrel, they set ...

Link http://www.imdb.com/title/tt7575410

Last Updated 21-10-2018 13:51:50
6.4

Votes 12

Main Technical Comments
Zoo Wars 2018 Movies HDRip x264 AAC with Sample ☻rDX☻

:clapSCREEN SHOTS & POSTER::clap

https://iphonehosting.eu/2018/10/savings/index.html
https://iphonehosting.eu/2018/10/savings/1.html
https://iphonehosting.eu/2018/10/savings/2.html
https://iphonehosting.eu/2018/10/savings/3.html
https://iphonehosting.eu/2018/10/savings/4.html
https://iphonehosting.eu/2018/10/savings/5.html
https://iphonehosting.eu/2018/10/savings/6.html
https://iphonehosting.eu/2018/10/savings/7.html
https://iphonehosting.eu/2018/10/savings/8.html
https://iphonehosting.eu/2018/10/savings/9.html
https://iphonehosting.eu/2018/10/savings/10.html


File size                                : 696 MiB
Duration                                 : 1 h 10 min
Overall bit rate mode                    : Constant
Overall bit rate                         : 1 390 kb/s
Movie name                               : Zoo Wars 2018 Movies HDRip x264 AAC ☻rDX☻

Video
ID                                       : 2
Format                                   : AVC
Format/Info                              : Advanced Video Codec
Format profile                           : [email protected]
Format settings, CABAC                   : Yes
Format settings, ReFrames                : 2 frames
Format settings, GOP                     : M=1, N=12
Codec ID                                 : V_MPEG4/ISO/AVC
Duration                                 : 1 h 10 min
Bit rate mode                            : Constant
Bit rate                                 : 1 327 kb/s
Width                                    : 720 pixels
Height                                   : 400 pixels
Display aspect ratio                     : 16:9
Frame rate mode                          : Constant
Frame rate                               : 23.976 (24000/1001) FPS
Color space                              : YUV
Chroma subsampling                       : 4:2:0
Bit depth                                : 8 bits
Scan type                                : Progressive
Bits/(Pixel*Frame)                       : 0.192
Stream size                              : 650 MiB (93%)
Title                                    : ☻rDX☻
Default                                  : Yes
Forced                                   : No

Audio
ID                                       : 1
Format                                   : MPEG Audio
Format version                           : Version 1
Format profile                           : Layer 3
Mode                                     : Joint stereo
Mode extension                           : MS Stereo
Codec ID                                 : A_MPEG/L3
Codec ID/Hint                            : MP3
Duration                                 : 1 h 10 min
Bit rate mode                            : Constant
Bit rate                                 : 64.0 kb/s
Channel(s)                               : 2 channels
Sampling rate                            : 44.1 kHz
Compression mode                         : Lossy
Stream size                              : 32.1 MiB (5%)
Title                                    : ☻rDX☻
Default                                  : Yes
Forced                                   : No

https://www.imdb.com/title/tt7575410/
........................................................................


Loading...


Trackers:
udp://tracker.coppersurfer.tk:6969/announce

Zoo Wars 2018 Movies HDRip x264 AAC with Sample ☻rDX☻
Files
Sample ~ Zoo Wars 2018 Movies HDRip x264 AAC ☻rDX☻.mkv9.03 MB
Zoo Wars 2018 Movies HDRip x264 AAC ☻rDX☻.mkv696.36 MB


Similar Torrents
Type Name Size Added S L
Divx/Xvid Zoo.Wars.2018.HDRip.XviD.AC3-EVO
1.18 GB 2018-10-10 17:05:11 1298 541
HD Zoo.Wars.2018.1080p.WEB-DL.H264.AC3-EVO[EtHD]
2.61 GB 2018-10-10 17:25:20 143 150
h.264/x264 Zoo.Wars.2018.HDRip.XviD.AC3-EVO[EtMovies]
1.18 GB 2018-10-10 17:06:44 34 36

Comments:
No comments still posted
Loading...
Powered by TT | Page Generated In 0.225829 secs.
| RSS Feed | Feed Info