[Login] or [Signup]

First Cams

Xvid/x264



Non-English

Loading...

18+ Space Babes From Outer Space 2018 UNCENSORED Movies BRRip x264 5.1 with Sample ☻rDX☻


Complete Name :18+ Space Babes From Outer Space 2018 UNCENSORED Movies BRRip x264 5.1 with Sample ☻rDX☻
Download torrent:    18+ Space Babes From Outer Space 2018 UNCENSORED Movies BRRip x264 5.1 with Sample ☻rDX☻.torrent
Info Hash:f5643706c545bb88780ecbd8115cb46f12dfc8e1
Category:Movies  > h.264/x264
Torrent language:English  
Seeds | Leech:697 | 312
Complete: 6,603
Health:
Total Size:926.63 MB
Downloaded:11 Times
Added By:      teamrdx
Date Added:11-10-2018 09:24:am | Last Edit:  12-10-2018 09:48:pm

 

IMDB
Space Babes from Outer Space
Space Babes from Outer Space Released 20 May 2017

Genre Comedy, Sci-Fi

Director Brian K. Williams

Writer N/A

Actors Ellie Church, Brian Papandrea, Allison Maier, Alyss Winkler

Plot Three space women land on Earth in search of sexual energy to fuel their spaceship and get back home. They befriend a lonely farmboy who helps them on their plight, all while evading their mortal enemies, the Scrotes.

Link https://www.imdb.com/title/tt6644286/

Last Updated 23-10-2018 17:15:41
5.9

Votes 163

Main Technical Comments
18+ Space Babes From Outer Space 2018 UNCENSORED Movies BRRip x264 5.1 with Sample ☻rDX☻

:clapSCREEN SHOTS & POSTER::clap

https://iphonehosting.eu/2018/10/selling/index.html
https://iphonehosting.eu/2018/10/selling/1.html
https://iphonehosting.eu/2018/10/selling/2.html
https://iphonehosting.eu/2018/10/selling/3.html
https://iphonehosting.eu/2018/10/selling/4.html
https://iphonehosting.eu/2018/10/selling/5.html
https://iphonehosting.eu/2018/10/selling/6.html
https://iphonehosting.eu/2018/10/selling/7.html
https://iphonehosting.eu/2018/10/selling/8.html
https://iphonehosting.eu/2018/10/selling/9.html
https://iphonehosting.eu/2018/10/selling/10.html


File size                                : 915 MiB
Duration                                 : 1 h 21 min
Overall bit rate mode                    : Constant
Overall bit rate                         : 1 568 kb/s
Movie name                               : 18+ Space Babes From Outer Space 2018 UNCENSORED Movies BRRip x264 5.1 ☻rDX☻

Video
ID                                       : 2
Format                                   : AVC
Format/Info                              : Advanced Video Codec
Format profile                           : [email protected]
Format settings, CABAC                   : Yes
Format settings, ReFrames                : 2 frames
Format settings, GOP                     : M=1, N=12
Codec ID                                 : V_MPEG4/ISO/AVC
Duration                                 : 1 h 21 min
Bit rate mode                            : Constant
Bit rate                                 : 1 121 kb/s
Width                                    : 720 pixels
Height                                   : 304 pixels
Display aspect ratio                     : 2.35:1
Frame rate mode                          : Constant
Frame rate                               : 23.976 FPS
Color space                              : YUV
Chroma subsampling                       : 4:2:0
Bit depth                                : 8 bits
Scan type                                : Progressive
Bits/(Pixel*Frame)                       : 0.214
Stream size                              : 636 MiB (69%)
Title                                    : ☻rDX☻
Default                                  : Yes
Forced                                   : No

Audio
ID                                       : 1
Format                                   : AC-3
Format/Info                              : Audio Coding 3
Mode extension                           : CM (complete main)
Format settings, Endianness              : Big
Codec ID                                 : A_AC3
Duration                                 : 1 h 21 min
Bit rate mode                            : Constant
Bit rate                                 : 448 kb/s
Channel(s)                               : 6 channels
Channel positions                        : Front: L C R, Side: L R, LFE
Sampling rate                            : 48.0 kHz
Frame rate                               : 31.250 FPS (1536 spf)
Bit depth                                : 16 bits
Compression mode                         : Lossy
Stream size                              : 262 MiB (29%)
Title                                    : ☻rDX☻
Default                                  : Yes
Forced                                   : No

https://www.imdb.com/title/tt6644286/
........................................................................


Loading...


Trackers:
udp://tracker.coppersurfer.tk:6969/announce

18+ Space Babes From Outer Space 2018 UNCENSORED Movies BRRip x264 5.1 with Sample ☻rDX☻
Files
18+ Space Babes From Outer Space 2018 UNCENSORED Movies BRRip x264 5.1 ☻rDX☻.mkv915.36 MB
Sample ~ 18+ Space Babes From Outer Space 2018 UNCENSORED Movies BRRip x264 5.1 ☻rDX☻.mkv11.27 MB


Similar Torrents
Type Name Size Added S L
h.264/x264 18+ Space Babes From Outer Space 2018 UNCENSORED M...
705.29 MB 2018-10-11 08:16:31 106 113

Comments:
No comments still posted
Loading...
Powered by TT | Page Generated In 0.581624 secs.
| RSS Feed | Feed Info