[Login] or [Signup]

First Cams

Xvid/x264



Non-English

Loading...

Bible Town 2018 Movies HDRip x264 AAC with Sample ☻rDX☻


Complete Name :Bible Town 2018 Movies HDRip x264 AAC with Sample ☻rDX☻
Download torrent:    Bible Town 2018 Movies HDRip x264 AAC with Sample ☻rDX☻.torrent
Info Hash:efca774457662ce81a26f91b8467773db5475844
Category:Movies  > HD
Torrent language:English  
Seeds | Leech:45 | 42
Complete: 169
Health:
Total Size:705.64 MB
Downloaded:10 Times
Added By:      teamrdx
Date Added:11-10-2018 08:41:am | Last Edit:  12-10-2018 09:53:pm

 

Main Technical Comments
Bible Town 2018 Movies HDRip x264 AAC with Sample ☻rDX☻

:clapSCREEN SHOTS & POSTER::clap

https://iphonehosting.eu/2018/10/server/index.html
https://iphonehosting.eu/2018/10/server/1.html
https://iphonehosting.eu/2018/10/server/2.html
https://iphonehosting.eu/2018/10/server/3.html
https://iphonehosting.eu/2018/10/server/4.html
https://iphonehosting.eu/2018/10/server/5.html
https://iphonehosting.eu/2018/10/server/6.html
https://iphonehosting.eu/2018/10/server/7.html
https://iphonehosting.eu/2018/10/server/8.html
https://iphonehosting.eu/2018/10/server/9.html
https://iphonehosting.eu/2018/10/server/10.html


File size                                : 698 MiB
Duration                                 : 1 h 23 min
Overall bit rate mode                    : Constant
Overall bit rate                         : 1 169 kb/s
Movie name                               : Bible Town 2018 Movies HDRip x264 AAC ☻rDX☻

Video
ID                                       : 2
Format                                   : AVC
Format/Info                              : Advanced Video Codec
Format profile                           : [email protected]
Format settings, CABAC                   : Yes
Format settings, ReFrames                : 2 frames
Format settings, GOP                     : M=1, N=12
Codec ID                                 : V_MPEG4/ISO/AVC
Duration                                 : 1 h 23 min
Bit rate mode                            : Constant
Bit rate                                 : 1 106 kb/s
Width                                    : 720 pixels
Height                                   : 400 pixels
Display aspect ratio                     : 16:9
Frame rate mode                          : Constant
Frame rate                               : 23.976 (24000/1001) FPS
Color space                              : YUV
Chroma subsampling                       : 4:2:0
Bit depth                                : 8 bits
Scan type                                : Progressive
Bits/(Pixel*Frame)                       : 0.160
Stream size                              : 645 MiB (93%)
Title                                    : ☻rDX☻
Default                                  : Yes
Forced                                   : No

Audio
ID                                       : 1
Format                                   : MPEG Audio
Format version                           : Version 1
Format profile                           : Layer 3
Mode                                     : Joint stereo
Mode extension                           : MS Stereo
Codec ID                                 : A_MPEG/L3
Codec ID/Hint                            : MP3
Duration                                 : 1 h 23 min
Bit rate mode                            : Constant
Bit rate                                 : 64.0 kb/s
Channel(s)                               : 2 channels
Sampling rate                            : 44.1 kHz
Compression mode                         : Lossy
Stream size                              : 38.2 MiB (5%)
Title                                    : ☻rDX☻
Default                                  : Yes
Forced                                   : No

https://www.imdb.com/title/tt7275258/
........................................................................


Loading...


Trackers:
udp://tracker.coppersurfer.tk:6969/announce

Bible Town 2018 Movies HDRip x264 AAC with Sample ☻rDX☻
Files
Bible Town 2018 Movies HDRip x264 AAC ☻rDX☻.mkv697.57 MB
Sample ~ Bible Town 2018 Movies HDRip x264 AAC ☻rDX☻.mkv8.07 MB


Similar Torrents
Type Name Size Added S L
Divx/Xvid Bible.Town.2018.HDRip.XviD.AC3-EVO
1.46 GB 2018-10-10 17:04:08 233 136
h.264/x264 Bible.Town.2018.HDRip.XviD.AC3-EVO[EtMovies]
1.46 GB 2018-10-10 17:08:58 33 34
HD Bible.Town.2018.1080p.WEB-DL.H264.AC3-EVO[EtHD]
3.12 GB 2018-10-10 17:23:19 8 17
HD Bible Town 2017 Movies 720p HDRip x264 AAC with Sa...
712.03 MB 2018-10-13 06:01:24 7 0

Comments:
No comments still posted
Loading...
Powered by TT | Page Generated In 0.042934 secs.
| RSS Feed | Feed Info