[Login] or [Signup]

First Cams

Xvid/x264



Non-English

Loading...

18+ Conspiracy X 2018 UNCENSORED Movies 1080p HDRip x264 AAC with Sample ☻rDX☻


Complete Name :18+ Conspiracy X 2018 UNCENSORED Movies 1080p HDRip x264 AAC with Sample ☻rDX☻
Download torrent:    18+ Conspiracy X 2018 UNCENSORED Movies 1080p HDRip x264 AAC with Sample ☻rDX☻.torrent
Info Hash:78719ad1cd91518e8f718b719ee8afdf4769749c
Category:Movies  > HD
Torrent language:English  
Seeds | Leech:952 | 485
Complete: 9,830
Health:
Total Size:982.66 MB
Downloaded:13 Times
Added By:      teamrdx
Date Added:11-10-2018 08:01:am | Last Edit:  12-10-2018 08:50:pm

 

Main Technical Comments
18+ Conspiracy X 2018 UNCENSORED Movies 1080p HDRip x264 AAC with Sample ☻rDX☻

:clapSCREEN SHOTS & POSTER::clap

https://iphonehosting.eu/2018/10/software/index.html
https://iphonehosting.eu/2018/10/software/1.html
https://iphonehosting.eu/2018/10/software/2.html
https://iphonehosting.eu/2018/10/software/3.html
https://iphonehosting.eu/2018/10/software/4.html
https://iphonehosting.eu/2018/10/software/5.html
https://iphonehosting.eu/2018/10/software/6.html
https://iphonehosting.eu/2018/10/software/7.html
https://iphonehosting.eu/2018/10/software/8.html
https://iphonehosting.eu/2018/10/software/9.html
https://iphonehosting.eu/2018/10/software/10.html


File size                                : 975 MiB
Duration                                 : 1 h 41 min
Overall bit rate                         : 1 347 kb/s
Movie name                               : 18+ Conspiracy X 2018 UNCENSORED Movies 1080p HDRip x264 AAC ☻rDX☻

Video
ID                                       : 2
Format                                   : AVC
Format/Info                              : Advanced Video Codec
Format profile                           : [email protected]
Format settings, CABAC                   : Yes
Format settings, ReFrames                : 5 frames
Codec ID                                 : V_MPEG4/ISO/AVC
Duration                                 : 1 h 41 min
Bit rate                                 : 1 280 kb/s
Width                                    : 1 920 pixels
Height                                   : 1 080 pixels
Display aspect ratio                     : 16:9
Frame rate mode                          : Constant
Frame rate                               : 23.976 (24000/1001) FPS
Color space                              : YUV
Chroma subsampling                       : 4:2:0
Bit depth                                : 8 bits
Scan type                                : Progressive
Bits/(Pixel*Frame)                       : 0.026
Stream size                              : 909 MiB (93%)
Title                                    : ☻rDX☻
Writing library                          : x264

Audio
ID                                       : 1
Format                                   : MPEG Audio
Format version                           : Version 1
Format profile                           : Layer 3
Mode                                     : Joint stereo
Mode extension                           : MS Stereo
Codec ID                                 : A_MPEG/L3
Codec ID/Hint                            : MP3
Duration                                 : 1 h 41 min
Bit rate mode                            : Constant
Bit rate                                 : 64.0 kb/s
Channel(s)                               : 2 channels
Sampling rate                            : 44.1 kHz
Compression mode                         : Lossy
Stream size                              : 46.3 MiB (5%)
Title                                    : ☻rDX☻
Default                                  : Yes
Forced                                   : No

https://www.imdb.com/title/tt5831668/
........................................................................


Loading...


Trackers:
udp://tracker.coppersurfer.tk:6969/announce

18+ Conspiracy X 2018 UNCENSORED Movies 1080p HDRip x264 AAC with Sample ☻rDX☻
Files
18+ Conspiracy X 2018 UNCENSORED Movies 1080p HDRip x264 AAC ☻rDX☻.mkv975.22 MB
Sample ~ 18+ Conspiracy X 2018 UNCENSORED Movies 1080p HDRip x264 AAC ☻rDX☻.mkv7.44 MB


Similar Torrents
Type Name Size Added S L
HD 18+ Conspiracy X 2018 UNCENSORED Movies HDRip x264...
702.08 MB 2018-10-11 06:53:13 273 103

Comments:
No comments still posted
Loading...
Powered by TT | Page Generated In 0.043178 secs.
| RSS Feed | Feed Info