[Login] or [Signup]

First Cams

Xvid/x264



Non-English

Loading...

18+ Conspiracy X 2018 UNCENSORED Movies HDRip x264 AAC with Sample ☻rDX☻


Complete Name :18+ Conspiracy X 2018 UNCENSORED Movies HDRip x264 AAC with Sample ☻rDX☻
Download torrent:    18+ Conspiracy X 2018 UNCENSORED Movies HDRip x264 AAC with Sample ☻rDX☻.torrent
Info Hash:e71221ae470a3f762d92496e147f279153e935c4
Category:Movies  > HD
Torrent language:English  
Seeds | Leech:273 | 103
Complete: 4,166
Health:
Total Size:702.08 MB
Downloaded:11 Times
Added By:      teamrdx
Date Added:11-10-2018 07:53:am | Last Edit:  12-10-2018 08:51:pm

 

Main Technical Comments
18+ Conspiracy X 2018 UNCENSORED Movies HDRip x264 AAC with Sample ☻rDX☻

:clapSCREEN SHOTS & POSTER::clap

https://iphonehosting.eu/2018/10/stock/index.html
https://iphonehosting.eu/2018/10/stock/1.html
https://iphonehosting.eu/2018/10/stock/2.html
https://iphonehosting.eu/2018/10/stock/3.html
https://iphonehosting.eu/2018/10/stock/4.html
https://iphonehosting.eu/2018/10/stock/5.html
https://iphonehosting.eu/2018/10/stock/6.html
https://iphonehosting.eu/2018/10/stock/7.html
https://iphonehosting.eu/2018/10/stock/8.html
https://iphonehosting.eu/2018/10/stock/9.html
https://iphonehosting.eu/2018/10/stock/10.html


File size                                : 695 MiB
Duration                                 : 1 h 41 min
Overall bit rate mode                    : Constant
Overall bit rate                         : 960 kb/s
Movie name                               : Conspiracy X 2018 Movies HDRip x264 AAC ☻rDX☻

Video
ID                                       : 2
Format                                   : AVC
Format/Info                              : Advanced Video Codec
Format profile                           : [email protected]
Format settings, CABAC                   : Yes
Format settings, ReFrames                : 2 frames
Format settings, GOP                     : M=1, N=12
Codec ID                                 : V_MPEG4/ISO/AVC
Duration                                 : 1 h 41 min
Bit rate mode                            : Constant
Bit rate                                 : 897 kb/s
Width                                    : 700 pixels
Height                                   : 394 pixels
Display aspect ratio                     : 16:9
Frame rate mode                          : Constant
Frame rate                               : 23.976 (24000/1001) FPS
Color space                              : YUV
Chroma subsampling                       : 4:2:0
Bit depth                                : 8 bits
Scan type                                : Progressive
Bits/(Pixel*Frame)                       : 0.136
Stream size                              : 635 MiB (91%)
Title                                    : ☻rDX☻
Default                                  : Yes
Forced                                   : No

Audio
ID                                       : 1
Format                                   : MPEG Audio
Format version                           : Version 1
Format profile                           : Layer 3
Mode                                     : Joint stereo
Mode extension                           : MS Stereo
Codec ID                                 : A_MPEG/L3
Codec ID/Hint                            : MP3
Duration                                 : 1 h 41 min
Bit rate mode                            : Constant
Bit rate                                 : 64.0 kb/s
Channel(s)                               : 2 channels
Sampling rate                            : 44.1 kHz
Compression mode                         : Lossy
Stream size                              : 46.3 MiB (7%)
Title                                    : ☻rDX☻
Default                                  : Yes
Forced                                   : No

https://www.imdb.com/title/tt5831668/
........................................................................


Loading...


Trackers:
udp://tracker.coppersurfer.tk:6969/announce

18+ Conspiracy X 2018 UNCENSORED Movies HDRip x264 AAC with Sample ☻rDX☻
Files
18+ Conspiracy X 2018 UNCENSORED Movies HDRip x264 AAC ☻rDX☻.mkv695.22 MB
Sample ~ 18+ Conspiracy X 2018 UNCENSORED Movies HDRip x264 AAC ☻rDX☻.mkv6.87 MB


Similar Torrents
Type Name Size Added S L
HD 18+ Conspiracy X 2018 UNCENSORED Movies 1080p HDRi...
982.66 MB 2018-10-11 07:01:06 952 485

Comments:
No comments still posted
Loading...
Powered by TT | Page Generated In 0.043856 secs.
| RSS Feed | Feed Info