[Login] or [Signup]

First Cams

Xvid/x264



Non-English

Loading...

Searching 2018 Movies 720p HDRip x264 AAC with Sample ☻rDX☻


Complete Name :Searching 2018 Movies 720p HDRip x264 AAC with Sample ☻rDX☻
Download torrent:    Searching 2018 Movies 720p HDRip x264 AAC with Sample ☻rDX☻.torrent
Info Hash:570f93a24a18a05eb4f34546e49d08e92f7a3fc8
Category:Movies  > HD
Torrent language:English  
Seeds | Leech:727 | 336
Complete: 4,890
Health:
Total Size:853.62 MB
Downloaded:13 Times
Added By:      teamrdx
Date Added:11-10-2018 06:58:am | Last Edit:  12-10-2018 07:46:pm

 

IMDB
Searching
Searching Released 31 Aug 2018

Genre Drama, Mystery, Thriller

Director Aneesh Chaganty

Writer Aneesh Chaganty, Sev Ohanian

Actors John Cho, Sara Sohn, Alex Jayne Go, Megan Liu

Plot After his 16-year-old daughter goes missing, a desperate father breaks into her laptop to look for clues to find her.

Link http://www.imdb.com/title/tt7668870

Last Updated 23-10-2018 17:22:13
7.9

Votes 21,053

Main Technical Comments
Searching 2018 Movies 720p HDRip x264 AAC with Sample ☻rDX☻

:clapSCREEN SHOTS & POSTER::clap

https://iphonehosting.eu/2018/10/stockmarket/index.html
https://iphonehosting.eu/2018/10/stockmarket/1.html
https://iphonehosting.eu/2018/10/stockmarket/2.html
https://iphonehosting.eu/2018/10/stockmarket/3.html
https://iphonehosting.eu/2018/10/stockmarket/4.html
https://iphonehosting.eu/2018/10/stockmarket/5.html
https://iphonehosting.eu/2018/10/stockmarket/6.html
https://iphonehosting.eu/2018/10/stockmarket/7.html
https://iphonehosting.eu/2018/10/stockmarket/8.html
https://iphonehosting.eu/2018/10/stockmarket/9.html
https://iphonehosting.eu/2018/10/stockmarket/10.html


File size                                : 844 MiB
Duration                                 : 1 h 42 min
Overall bit rate                         : 1 156 kb/s
Movie name                               : Searching 2018 Movies 720p HDRip x264 AAC ☻rDX☻

Video
ID                                       : 2
Format                                   : AVC
Format/Info                              : Advanced Video Codec
Format profile                           : [email protected]
Format settings, CABAC                   : Yes
Format settings, ReFrames                : 4 frames
Codec ID                                 : V_MPEG4/ISO/AVC
Duration                                 : 1 h 42 min
Bit rate                                 : 1 100 kb/s
Width                                    : 1 280 pixels
Height                                   : 720 pixels
Display aspect ratio                     : 16:9
Frame rate mode                          : Constant
Frame rate                               : 30.000 FPS
Color space                              : YUV
Chroma subsampling                       : 4:2:0
Bit depth                                : 8 bits
Scan type                                : Progressive
Bits/(Pixel*Frame)                       : 0.040
Stream size                              : 781 MiB (92%)
Title                                    : ☻rDX☻

Audio
ID                                       : 1
Format                                   : MPEG Audio
Format version                           : Version 1
Format profile                           : Layer 3
Mode                                     : Joint stereo
Mode extension                           : MS Stereo
Codec ID                                 : A_MPEG/L3
Codec ID/Hint                            : MP3
Duration                                 : 1 h 42 min
Bit rate mode                            : Constant
Bit rate                                 : 64.0 kb/s
Channel(s)                               : 2 channels
Sampling rate                            : 44.1 kHz
Compression mode                         : Lossy
Stream size                              : 46.8 MiB (6%)
Title                                    : ☻rDX☻
Writing library                          : LAMEUUULAME3.99.5
Default                                  : Yes
Forced                                   : No

https://www.imdb.com/title/tt7668870/
........................................................................


Loading...


Trackers:
udp://tracker.coppersurfer.tk:6969/announce

Searching 2018 Movies 720p HDRip x264 AAC with Sample ☻rDX☻
Files
Sample ~ Searching 2018 Movies 720p HDRip x264 AAC ☻rDX☻.mkv9.31 MB
Searching 2018 Movies 720p HDRip x264 AAC ☻rDX☻.mkv844.31 MB


Similar Torrents
Type Name Size Added S L
Cam/TS Searching 2018 720p TS-1XBET
2.44 GB 2018-09-05 23:59:10 5460 4007
Divx/Xvid Searching.2018.HC.HDRip.XviD.AC3-EVO
1.37 GB 2018-10-10 13:50:57 4245 1338
Cam/TS Searching.2018.HD-TS.XViD.AC3-ETRG
1.23 GB 2018-09-08 11:01:22 899 367
Cam/TS Searching 2018 720p TS Rip x264 [MW]
1.18 GB 2018-09-06 21:06:33 762 344
HD Searching 2018 1080p HC HDRip AAC 2.0 x264 [MW]
1.60 GB 2018-10-11 14:46:46 441 141
Video AssParade - Alycia Starr (Big Booty Searching For ...
493.42 MB 2018-04-16 13:07:03 341 197
HD Searching 2018 720p KORSUB HDRip x264 [MW]
891.37 MB 2018-10-11 09:42:00 228 64
Cam/TS Searching 2018 Movies HD TS x264 Clean Audio AAC N...
705.21 MB 2018-09-06 16:25:49 186 59
Ebooks Criminal Women 1850-1920 - Researching the Lives o...
2.64 MB 2018-10-08 14:00:42 117 15
h.264/x264 Searching.2018.HC.HDRip.XviD.AC3-EVO[EtMovies]
1.37 GB 2018-10-10 13:53:11 117 12

Comments:
No comments still posted
Loading...
Powered by TT | Page Generated In 0.280072 secs.
| RSS Feed | Feed Info